VERSION	0.00.00	1.03.00
FES_MODE	0
BPM_DEF	175.000	175.000	175.000	175.000
MET_DEF	4	4
RESOLUTION	384
CLK_DEF	384
COMPATIBLE_CODE	MA2

BPM	0	0	175.000
MET	0	0	4	4

HLD	1	0	1	144
TAP	1	144	2
HLD	1	288	3	144
TAP	2	48	4
HLD	2	192	5	144
TAP	2	336	6
TAP	3	48	7
TAP	3	96	0
TAP	3	144	7
HLD	3	192	6	144
TAP	3	336	5
HLD	4	96	4	144
TAP	4	240	3
HLD	5	0	2	144
TAP	5	144	1
TAP	5	240	0
TAP	5	288	7
TAP	5	336	0
TAP	6	0	6
TAP	6	48	6
TAP	6	96	6
STR	6	144	5
SI_	6	144	5	96	48	2
TAP	6	288	1
TAP	6	336	1
TAP	7	0	1
STR	7	48	2
SI_	7	48	2	96	48	5
TAP	7	192	6
TAP	7	240	6
TAP	7	288	6
STR	7	336	5
SI_	7	336	5	96	48	2
STR	8	48	1
SI_	8	48	1	96	48	6
TAP	8	192	0
TAP	8	240	0
TAP	8	288	0
STR	8	336	1
SI_	8	336	1	96	48	6
TAP	9	96	7
TAP	9	144	7
TAP	9	192	7
STR	9	240	6
SI_	9	240	6	96	48	1
TAP	10	0	0
TAP	10	48	0
TAP	10	96	0
STR	10	144	1
SI_	10	144	1	96	48	6
TAP	10	240	5
TAP	10	288	4
TAP	10	336	3
TAP	11	0	2
TAP	11	0	6
BRK	11	48	1
BRK	11	48	5
TAP	11	192	3
TAP	11	288	2
TAP	11	288	3
TAP	12	0	3
TAP	12	0	4
TAP	12	96	2
TAP	12	96	3
TAP	12	192	3
TAP	12	192	4
TAP	12	288	1
TAP	12	288	3
TAP	13	0	3
TAP	13	0	5
TAP	13	96	2
TAP	13	96	3
TAP	13	192	4
TAP	13	288	4
TAP	13	288	5
TAP	14	0	3
TAP	14	0	4
TAP	14	96	4
TAP	14	96	5
TAP	14	192	2
TAP	14	192	4
TAP	14	288	0
TAP	14	288	2
TAP	15	0	0
TAP	15	0	6
TAP	15	96	4
TAP	15	96	6
TAP	15	192	3
TAP	15	288	4
TAP	15	288	5
TAP	16	0	2
TAP	16	0	3
TAP	16	96	3
TAP	16	96	4
TAP	16	192	3
TAP	16	192	5
TAP	16	288	2
TAP	16	288	4
TAP	17	0	3
TAP	17	0	6
TAP	17	96	1
TAP	17	96	4
STR	17	192	6
SI_	17	192	6	96	48	3
STR	17	336	1
SI_	17	336	1	96	48	4
STR	18	96	7
SI_	18	96	7	96	48	2
STR	18	240	0
SI_	18	240	0	96	48	5
TAP	19	0	7
TAP	19	96	7
TAP	19	144	0
TAP	19	192	7
TAP	19	240	0
TAP	19	336	0
TAP	19	336	1
TAP	20	48	0
TAP	20	48	7
TAP	20	144	6
TAP	20	144	7
TAP	20	240	0
TAP	20	288	0
TAP	20	288	7
TAP	21	0	1
TAP	21	96	5
TAP	21	144	2
TAP	21	192	4
TAP	21	240	3
TAP	21	336	5
TAP	21	336	6
TAP	22	48	0
TAP	22	48	7
TAP	22	144	1
TAP	22	144	2
TAP	22	240	3
TAP	22	240	4
TAP	23	0	2
TAP	23	96	2
TAP	23	144	3
TAP	23	192	4
TAP	23	240	5
TAP	23	336	6
TAP	23	336	7
TAP	24	48	2
TAP	24	48	3
TAP	24	144	0
TAP	24	144	1
TAP	24	240	5
TAP	24	288	4
TAP	24	288	5
STR	25	0	1
SI_	25	0	1	96	48	4
TAP	25	96	1
STR	25	144	6
SI_	25	144	6	96	48	3
TAP	25	240	6
STR	25	288	0
SI_	25	288	0	96	48	5
TAP	26	0	0
STR	26	48	7
SI_	26	48	7	96	48	2
TAP	26	144	7
TAP	26	192	3
TAP	26	240	3
HLD	26	288	3	144
TAP	27	48	5
HLD	27	96	6	192
HLD	27	288	4	144
TAP	28	48	2
HLD	28	96	1	192
HLD	28	288	0	144
TAP	29	48	7
HLD	29	96	5	192
HLD	29	288	7	144
TAP	30	48	1
HLD	30	96	2	144
TAP	30	240	4
HLD	30	288	3	144
TAP	31	48	2
HLD	31	96	3	144
TAP	31	240	5
HLD	31	288	4	144
TAP	32	48	3
HLD	32	96	4	144
TAP	32	240	7
HLD	32	288	0	336
TAP	33	240	7
TAP	33	288	0
TAP	33	288	7
BRK	33	336	0
BRK	33	336	7
BRK	34	48	1
BRK	34	48	6
BRK	34	144	0
BRK	34	144	7
TAP	34	240	1
TAP	34	240	5
TAP	34	336	2
TAP	34	336	3
TAP	35	48	6
TAP	35	48	7
TAP	35	144	3
TAP	35	144	4
TAP	35	240	2
TAP	35	240	6
TAP	35	336	4
TAP	35	336	5
TAP	36	48	0
TAP	36	48	1
TAP	36	144	3
TAP	36	144	4
TAP	36	240	0
TAP	36	240	5
TAP	36	336	2
TAP	36	336	7
TAP	37	48	0
TAP	37	48	3
TAP	37	144	4
TAP	37	144	7
TAP	37	240	0
TAP	37	240	1
TAP	37	288	0
TAP	37	336	7
TAP	38	0	0
TAP	38	48	6
TAP	38	48	7
TAP	38	144	2
TAP	38	144	3
TAP	38	240	0
TAP	38	240	7
TAP	38	336	4
TAP	38	336	5
TAP	39	48	0
TAP	39	48	1
TAP	39	144	5
TAP	39	144	6
HLD	39	240	3	96
HLD	39	336	5	96
HLD	40	48	1	96
STR	40	144	0
SCR	40	144	0	96	96	3
STR	40	240	7
SCL	40	240	7	96	96	4
STR	41	240	7
SI_	41	240	7	96	48	2
TAP	41	336	0
TAP	42	0	0
STR	42	48	0
SCL	42	48	0	96	48	5
BRK	42	192	2
BRK	42	288	0
BRK	42	288	7
TAP	43	48	6
TAP	43	72	5
HLD	43	96	4	96
TAP	43	240	1
HLD	43	288	0	96
TAP	44	48	7
TAP	44	72	0
HLD	44	96	1	96
TAP	44	240	0
HLD	44	288	7	96
TAP	45	48	5
TAP	45	72	4
HLD	45	96	3	96
TAP	45	240	3
HLD	45	288	4	96
HLD	46	0	2	96
HLD	46	96	6	96
HLD	46	192	0	96
HLD	46	288	7	96
TAP	47	48	6
TAP	47	72	5
HLD	47	96	4	96
TAP	47	288	2
TAP	47	336	2
TAP	48	0	2
TAP	48	48	2
TAP	48	96	6
TAP	48	144	6
TAP	48	192	6
TAP	48	240	6
TAP	48	288	0
TAP	48	336	6
TAP	49	0	7
TAP	49	48	0
TAP	49	48	5
TAP	49	144	2
TAP	49	144	7
TAP	49	240	0
TAP	49	240	5
TAP	49	288	7
TAP	49	336	1
TAP	50	0	0
TAP	50	48	2
TAP	50	48	7
TAP	50	144	0
TAP	50	144	5
TAP	50	240	2
TAP	50	240	7
TAP	50	288	5
TAP	50	336	6
TAP	51	0	7
TAP	51	48	0
TAP	51	48	5
TAP	51	144	2
TAP	51	144	7
TAP	51	240	0
TAP	51	240	5
TAP	51	288	2
TAP	51	336	1
TAP	52	0	0
TAP	52	48	2
TAP	52	48	7
TAP	52	144	0
TAP	52	144	5
TAP	52	240	2
TAP	52	240	7
TAP	52	288	1
TAP	52	336	6
TAP	53	0	1
TAP	53	48	0
TAP	53	48	5
TAP	53	144	2
TAP	53	144	7
TAP	53	240	1
TAP	53	240	4
TAP	53	336	3
TAP	53	336	6
TAP	54	48	0
TAP	54	48	5
TAP	54	144	2
TAP	54	144	7
TAP	54	240	1
TAP	54	240	6
STR	54	288	7
SCL	54	288	7	96	48	4
TAP	55	0	1
STR	55	48	0
SCR	55	48	0	96	48	3
TAP	55	192	6
STR	55	240	7
SCL	55	240	7	96	48	4
TAP	55	336	7
TAP	56	0	0
TAP	56	48	1
TAP	56	96	0
TAP	56	144	7
TAP	56	192	6
BRK	56	288	0
BRK	56	288	7
TAP	56	336	1
BRK	57	0	0
BRK	57	0	1
TAP	57	48	7
BRK	57	96	0
BRK	57	96	7
TAP	57	144	6
BRK	57	192	6
BRK	57	192	7
TAP	57	240	0
BRK	57	288	0
BRK	57	288	7
TAP	57	336	6
BRK	58	0	0
BRK	58	0	6
TAP	58	48	1
BRK	58	96	1
BRK	58	96	7
TAP	58	144	6
BRK	58	192	1
BRK	58	192	6
TAP	58	240	0
BRK	58	288	0
BRK	58	288	1
TAP	58	336	7
BRK	59	0	0
BRK	59	0	7
TAP	59	48	6
BRK	59	96	6
BRK	59	96	7
TAP	59	144	0
BRK	59	192	0
BRK	59	192	7
TAP	59	240	6
BRK	59	288	0
BRK	59	288	6
TAP	59	336	1
BRK	60	0	1
BRK	60	0	7
TAP	60	48	6
BRK	60	96	6
BRK	60	96	7
TAP	60	144	1
BRK	60	192	0
BRK	60	192	1
TAP	60	240	6
STR	60	288	4
SI_	60	288	4	96	48	0
TAP	61	0	2
STR	61	96	3
SI_	61	96	3	96	48	7
TAP	61	192	5
HLD	61	288	4	288
TAP	62	288	6
TAP	62	336	6
TAP	63	0	6
STR	63	48	5
SI_	63	48	5	96	48	2
TAP	63	192	1
TAP	63	240	1
TAP	63	288	1
STR	63	336	2
SI_	63	336	2	96	48	5
TAP	64	96	6
TAP	64	144	6
TAP	64	192	6
STR	64	240	5
SI_	64	240	5	96	48	2
STR	64	336	1
SI_	64	336	1	96	48	6
TAP	65	96	0
TAP	65	144	0
TAP	65	192	0
STR	65	240	1
SI_	65	240	1	96	48	6
TAP	66	0	7
TAP	66	48	7
TAP	66	96	7
STR	66	144	6
SI_	66	144	6	96	48	1
TAP	66	288	3
TAP	66	336	3
TAP	67	0	3
STR	67	48	2
SI_	67	48	2	96	48	5
TAP	67	192	4
TAP	67	240	4
TAP	67	288	4
STR	67	336	5
SI_	67	336	5	96	48	2
TAP	68	96	1
TAP	68	144	1
TAP	68	192	1
STR	68	240	0
SI_	68	240	0	96	48	5
TAP	69	0	6
TAP	69	48	6
TAP	69	96	6
STR	69	144	7
SI_	69	144	7	96	48	2
TAP	69	288	1
TAP	69	336	1
TAP	70	0	1
STR	70	48	0
SI_	70	48	0	96	48	4
STR	70	144	3
SI_	70	144	3	96	48	7
TAP	70	288	6
TAP	70	336	6
TAP	71	0	6
STR	71	48	7
SI_	71	48	7	96	48	2
TAP	71	192	1
TAP	71	240	1
TAP	71	288	1
STR	71	336	0
SI_	71	336	0	96	48	5
TAP	72	96	7
TAP	72	144	7
TAP	72	192	7
STR	72	240	6
SI_	72	240	6	96	48	3
TAP	73	0	0
TAP	73	48	0
TAP	73	96	0
STR	73	144	1
SI_	73	144	1	96	48	4
HLD	73	288	7	144
HLD	74	48	6	144
HLD	74	192	0	144
HLD	74	336	1	144
HLD	75	96	7	144
HLD	75	240	6	96
TAP	75	336	5
TAP	76	0	6
TAP	76	48	7
HLD	76	96	0	144
HLD	76	240	1	144
HLD	77	0	7	144
HLD	77	144	6	144
HLD	77	288	3	144
HLD	78	48	2	144
HLD	78	192	4	144
HLD	78	336	5	144
HLD	79	96	0	288
TAP	79	240	1
HLD	80	0	7	288
TAP	80	144	6
HLD	80	288	0	384
TAP	81	48	1
TAP	81	144	7
TAP	81	240	1
HLD	81	288	6	288
TAP	82	48	7
HLD	82	192	1	288
TAP	82	336	0
HLD	83	96	5	288
TAP	83	240	4
HLD	84	0	2	144
TAP	84	144	3

T_REC_TAP	334
T_REC_BRK	43
T_REC_XTP	0
T_REC_HLD	55
T_REC_XHO	0
T_REC_STR	40
T_REC_BST	0
T_REC_XST	0
T_REC_TTP	0
T_REC_THO	0
T_REC_SLD	40
T_REC_ALL	512
T_NUM_TAP	374
T_NUM_BRK	43
T_NUM_HLD	55
T_NUM_SLD	40
T_NUM_ALL	512
T_JUDGE_TAP	417
T_JUDGE_HLD	180
T_JUDGE_SLD	40
T_JUDGE_ALL	637
TTM_EACHPAIRS	94
TTM_SCR_TAP	187000
TTM_SCR_BRK	111800
TTM_SCR_HLD	55000
TTM_SCR_SLD	60000
TTM_SCR_ALL	413800
TTM_SCR_S	397250
TTM_SCR_SS	409500
TTM_RAT_ACV	10105

