VERSION	0.00.00	1.03.00
FES_MODE	0
BPM_DEF	175.000	175.000	175.000	175.000
MET_DEF	4	4
RESOLUTION	384
CLK_DEF	384
COMPATIBLE_CODE	MA2

BPM	0	0	175.000
MET	0	0	4	4

HLD	1	0	6	144
HLD	1	288	6	144
HLD	2	192	6	144
TAP	3	48	5
TAP	3	144	4
HLD	3	192	6	144
HLD	4	96	6	144
HLD	5	0	6	144
TAP	5	240	7
TAP	5	336	0
HLD	6	0	1	144
TAP	6	144	0
TAP	6	240	7
HLD	6	288	6	144
TAP	7	48	5
TAP	7	144	4
HLD	7	192	5	144
TAP	7	336	6
TAP	8	48	0
TAP	8	96	2
TAP	8	144	4
HLD	8	192	3	144
TAP	8	336	2
TAP	9	48	0
HLD	9	96	7	144
TAP	9	240	6
TAP	9	336	6
HLD	10	0	7	144
TAP	10	144	0
TAP	10	240	1
TAP	10	288	7
TAP	10	336	5
TAP	11	0	6
BRK	11	48	7
HLD	11	192	0	144
TAP	11	336	1
TAP	12	0	2
TAP	12	48	1
TAP	12	144	0
TAP	12	240	7
TAP	12	336	6
TAP	13	48	5
HLD	13	192	6	144
TAP	13	336	7
TAP	14	0	0
TAP	14	48	7
TAP	14	144	6
TAP	14	240	5
TAP	14	336	4
TAP	15	48	3
HLD	15	192	2	144
TAP	15	336	1
TAP	16	0	0
TAP	16	48	1
TAP	16	144	2
TAP	16	240	3
TAP	16	336	4
TAP	17	48	5
HLD	17	192	4	144
HLD	17	336	2	96
HLD	18	96	7	144
HLD	18	240	5	96
BRK	18	336	6
HLD	19	0	6	144
TAP	19	144	5
TAP	19	192	4
TAP	19	240	5
TAP	19	336	6
TAP	20	48	7
TAP	20	144	0
TAP	20	240	1
HLD	21	0	0	144
TAP	21	144	7
TAP	21	192	6
TAP	21	240	7
TAP	21	336	6
TAP	22	48	4
TAP	22	144	2
TAP	22	240	0
TAP	22	336	7
HLD	23	0	7	144
TAP	23	144	0
TAP	23	192	1
TAP	23	240	0
TAP	23	336	7
TAP	24	48	5
TAP	24	144	3
TAP	24	240	4
TAP	24	336	6
STR	25	0	6
SCL	25	0	6	96	96	3
HLD	25	192	2	144
STR	25	336	1
SI_	25	336	1	96	96	4
TAP	26	144	0
STR	26	192	0
SI_	26	192	0	96	96	5
HLD	27	96	6	192
HLD	27	288	0	192
TAP	28	96	7
HLD	28	288	1	192
TAP	28	288	5
HLD	29	96	3	192
HLD	29	288	4	192
TAP	30	96	5
TAP	30	240	6
TAP	30	288	6
TAP	31	0	0
TAP	31	48	0
TAP	31	144	1
TAP	31	240	7
TAP	31	288	6
TAP	32	0	7
TAP	32	48	0
TAP	32	144	1
HLD	32	288	6	336
STR	32	288	7
SCR	32	288	7	96	192	2
TAP	33	240	4
TAP	33	288	5
TAP	33	336	4
BRK	34	48	1
BRK	34	48	3
BRK	34	144	0
BRK	34	144	2
TAP	34	240	0
HLD	34	240	7	96
TAP	34	336	6
TAP	35	0	5
TAP	35	48	6
TAP	35	144	7
TAP	35	240	0
HLD	35	240	1	96
TAP	35	336	2
TAP	36	0	3
TAP	36	48	4
TAP	36	144	3
HLD	36	240	1	96
TAP	36	240	2
TAP	36	336	0
TAP	37	0	7
TAP	37	48	6
TAP	37	144	7
TAP	37	240	0
TAP	37	288	1
TAP	37	336	2
TAP	38	0	3
TAP	38	48	2
TAP	38	144	0
TAP	38	192	7
TAP	38	240	6
HLD	38	288	5	96
TAP	39	0	2
TAP	39	48	6
TAP	39	144	0
HLD	39	240	7	193
TAP	39	336	5
HLD	40	48	3	192
STR	40	144	1
SCL	40	144	1	96	192	6
HLD	41	240	0	96
TAP	41	336	1
TAP	42	0	2
TAP	42	48	1
TAP	42	144	0
STR	42	192	0
SI_	42	192	0	96	96	3
STR	42	192	7
SCL	42	192	7	96	96	4
TAP	43	48	2
HLD	43	96	2	144
TAP	43	240	1
HLD	43	288	0	144
TAP	44	48	6
HLD	44	96	6	144
TAP	44	240	5
HLD	44	288	4	144
TAP	45	48	2
HLD	45	96	2	144
TAP	45	240	6
HLD	45	288	6	96
TAP	46	0	7
HLD	46	96	0	96
HLD	46	192	2	96
HLD	46	288	4	192
HLD	47	96	6	192
TAP	47	288	5
STR	48	0	4
SCL	48	0	4	96	96	1
BRK	48	192	0
TAP	48	288	0
HLD	48	288	1	96
TAP	49	0	2
TAP	49	48	2
TAP	49	144	7
TAP	49	240	6
HLD	49	288	5	96
TAP	50	0	6
TAP	50	48	6
TAP	50	144	7
TAP	50	240	1
HLD	50	288	2	96
TAP	51	0	0
TAP	51	48	0
TAP	51	144	7
TAP	51	240	0
TAP	51	288	1
TAP	51	336	2
TAP	52	0	3
TAP	52	48	2
TAP	52	144	1
TAP	52	240	7
HLD	52	288	6	96
TAP	52	288	7
TAP	53	0	5
TAP	53	48	5
TAP	53	144	6
HLD	53	240	0	96
TAP	53	336	1
TAP	54	0	2
TAP	54	48	1
HLD	54	48	7	96
TAP	54	144	6
HLD	54	240	1	144
TAP	54	240	5
TAP	55	0	7
HLD	55	48	7	144
TAP	55	192	0
HLD	55	240	0	96
TAP	55	336	1
TAP	56	0	2
TAP	56	48	3
TAP	56	96	2
TAP	56	144	1
TAP	56	192	0
TAP	56	288	0
TAP	56	288	6
TAP	57	0	5
HLD	57	48	1	144
TAP	57	48	5
TAP	57	192	2
TAP	57	240	2
HLD	57	240	6	96
TAP	57	336	7
TAP	58	0	0
TAP	58	48	7
TAP	58	96	6
TAP	58	144	5
TAP	58	192	4
TAP	58	288	0
TAP	58	288	5
TAP	59	0	7
HLD	59	48	1	144
TAP	59	48	7
TAP	59	192	2
TAP	59	240	2
HLD	59	240	6	144
TAP	60	0	5
HLD	60	96	0	96
TAP	60	96	4
HLD	60	192	1	96
HLD	60	288	2	192
HLD	61	96	6	192
TAP	61	288	0
TAP	62	0	1
HLD	62	48	1	144
BRK	62	192	7
HLD	62	288	6	144
STR	62	288	7
SCR	62	288	7	96	192	2
HLD	63	192	6	144
HLD	64	96	6	144
TAP	64	336	0
TAP	65	48	1
STR	65	96	0
SCL	65	96	0	96	192	5
HLD	65	96	1	144
HLD	66	0	1	144
HLD	66	288	1	144
HLD	67	192	1	144
HLD	68	96	1	144
STR	68	96	2
SCR	68	96	2	96	192	5
HLD	69	0	1	144
HLD	69	288	1	144
STR	70	288	5
SCL	70	288	5	96	192	2
HLD	70	288	6	144
HLD	71	192	6	144
HLD	72	96	6	144
HLD	73	0	6	144
STR	73	288	7
SCR	73	288	7	96	192	2
STR	76	96	3
SCR	76	96	3	96	192	6
STR	81	288	0
SCL	81	288	0	96	768	5

T_REC_TAP	181
T_REC_BRK	8
T_REC_XTP	0
T_REC_HLD	78
T_REC_XHO	0
T_REC_STR	15
T_REC_BST	0
T_REC_XST	0
T_REC_TTP	0
T_REC_THO	0
T_REC_SLD	15
T_REC_ALL	297
T_NUM_TAP	196
T_NUM_BRK	8
T_NUM_HLD	78
T_NUM_SLD	15
T_NUM_ALL	297
T_JUDGE_TAP	204
T_JUDGE_HLD	230
T_JUDGE_SLD	15
T_JUDGE_ALL	449
TTM_EACHPAIRS	23
TTM_SCR_TAP	98000
TTM_SCR_BRK	20800
TTM_SCR_HLD	78000
TTM_SCR_SLD	22500
TTM_SCR_ALL	219300
TTM_SCR_S	211950
TTM_SCR_SS	218500
TTM_RAT_ACV	10036

