VERSION	0.00.00	1.03.00
FES_MODE	0
BPM_DEF	175.000	175.000	175.000	175.000
MET_DEF	4	4
RESOLUTION	384
CLK_DEF	384
COMPATIBLE_CODE	MA2

BPM	0	0	175.000
MET	0	0	4	4

STR	6	0	0
SI_	6	0	0	96	192	3
STR	8	192	4
SI_	8	192	4	96	192	7
TAP	11	192	1
TAP	11	288	1
TAP	12	0	1
TAP	12	96	1
TAP	12	192	2
TAP	12	288	2
TAP	13	0	2
TAP	13	96	2
TAP	13	192	1
TAP	13	288	1
TAP	14	0	1
TAP	14	96	1
TAP	14	192	0
TAP	14	288	0
TAP	15	0	0
TAP	15	96	0
TAP	15	192	7
TAP	15	288	7
TAP	16	0	7
TAP	16	96	7
TAP	16	192	6
TAP	16	288	6
TAP	17	0	6
TAP	17	96	6
HLD	17	192	7	288
HLD	18	96	0	288
TAP	19	0	7
TAP	19	96	7
TAP	19	192	7
TAP	19	288	7
TAP	20	0	6
TAP	20	96	6
TAP	20	192	6
TAP	20	288	6
TAP	21	0	7
TAP	21	96	7
TAP	21	192	7
TAP	21	288	7
TAP	22	0	0
TAP	22	96	0
TAP	22	192	0
TAP	22	288	0
TAP	23	0	1
TAP	23	96	1
TAP	23	192	1
TAP	23	288	1
TAP	24	0	2
TAP	24	96	2
TAP	24	192	2
TAP	24	288	2
HLD	25	0	1	480
STR	26	192	7
SI_	26	192	7	96	192	4
HLD	27	96	7	192
HLD	27	288	0	192
HLD	28	96	1	192
HLD	28	288	2	192
HLD	29	96	1	192
HLD	29	288	0	192
HLD	30	96	7	192
TAP	30	288	6
HLD	31	0	6	288
TAP	31	288	0
HLD	32	0	0	288
STR	32	288	7
SI_	32	288	7	96	192	4
TAP	33	288	0
TAP	33	336	0
TAP	34	48	7
BRK	34	144	0
BRK	34	144	7
HLD	34	240	1	144
TAP	35	0	2
TAP	35	48	2
TAP	35	144	1
HLD	35	240	7	144
TAP	36	0	6
TAP	36	48	6
TAP	36	144	7
HLD	36	240	0	144
TAP	37	0	1
TAP	37	48	1
TAP	37	144	0
TAP	37	240	7
TAP	37	288	7
TAP	38	0	6
TAP	38	48	6
TAP	38	144	5
TAP	38	240	4
TAP	38	288	4
TAP	39	0	5
TAP	39	48	5
HLD	39	144	6	96
TAP	39	240	7
TAP	39	336	0
TAP	40	48	1
TAP	40	144	2
HLD	40	240	3	384
HLD	41	240	4	144
TAP	42	0	3
HLD	42	48	3	144
TAP	42	192	2
BRK	42	288	1
TAP	43	0	0
TAP	43	0	7
TAP	43	96	6
TAP	43	192	0
TAP	43	192	7
TAP	43	288	1
TAP	44	0	0
TAP	44	0	7
TAP	44	96	6
TAP	44	192	0
TAP	44	192	7
TAP	44	288	2
TAP	45	0	3
TAP	45	0	4
TAP	45	96	5
TAP	45	192	3
TAP	45	192	4
TAP	45	288	2
TAP	46	0	3
TAP	46	0	4
TAP	46	96	6
TAP	46	192	0
TAP	46	192	7
HLD	46	288	1	192
HLD	47	96	2	192
TAP	47	288	1
TAP	48	0	1
TAP	48	96	0
BRK	48	192	0
HLD	48	288	7	96
TAP	49	0	6
TAP	49	48	6
TAP	49	144	7
HLD	49	240	1	144
TAP	50	0	2
TAP	50	48	2
TAP	50	144	1
HLD	50	240	7	144
TAP	51	0	6
TAP	51	48	5
TAP	51	144	7
TAP	51	240	0
TAP	51	288	0
TAP	52	0	1
TAP	52	48	1
TAP	52	144	2
TAP	52	240	3
TAP	52	288	3
TAP	53	0	2
TAP	53	49	2
HLD	53	144	1	96
TAP	53	240	0
TAP	53	336	7
TAP	54	48	6
TAP	54	144	5
HLD	54	240	7	144
TAP	55	0	0
HLD	55	48	0	144
TAP	55	192	7
HLD	55	240	7	336
TAP	56	0	6
TAP	56	96	6
BRK	56	192	6
TAP	56	288	0
TAP	57	0	0
TAP	57	96	1
TAP	57	192	1
TAP	57	288	2
TAP	58	0	2
TAP	58	96	3
TAP	58	192	3
TAP	58	288	1
TAP	59	0	1
TAP	59	96	0
TAP	59	192	0
TAP	59	288	7
TAP	60	0	7
TAP	60	96	6
TAP	60	192	6
HLD	60	288	5	192
HLD	61	96	4	192
TAP	61	288	5
TAP	62	0	6
HLD	62	48	6	144
BRK	62	192	7
STR	62	288	0
SCL	62	288	0	96	192	5
TAP	64	336	6
TAP	65	48	7
STR	65	96	7
SCR	65	96	7	96	192	2
STR	68	96	2
SI_	68	96	2	96	192	7
STR	70	288	7
SI_	70	288	7	96	192	4
HLD	73	288	6	144
HLD	74	192	6	144
HLD	75	96	6	144
HLD	76	96	5	144
HLD	77	0	5	144
HLD	77	288	5	144
HLD	78	192	5	144
HLD	79	96	5	144
HLD	80	0	6	144
HLD	80	288	7	144
TAP	81	144	0
TAP	81	240	1
HLD	81	288	1	144
HLD	82	192	1	144
HLD	83	96	1	144
HLD	84	0	1	144

T_REC_TAP	151
T_REC_BRK	6
T_REC_XTP	0
T_REC_HLD	45
T_REC_XHO	0
T_REC_STR	8
T_REC_BST	0
T_REC_XST	0
T_REC_TTP	0
T_REC_THO	0
T_REC_SLD	8
T_REC_ALL	218
T_NUM_TAP	159
T_NUM_BRK	6
T_NUM_HLD	45
T_NUM_SLD	8
T_NUM_ALL	218
T_JUDGE_TAP	165
T_JUDGE_HLD	171
T_JUDGE_SLD	8
T_JUDGE_ALL	344
TTM_EACHPAIRS	9
TTM_SCR_TAP	79500
TTM_SCR_BRK	15600
TTM_SCR_HLD	45000
TTM_SCR_SLD	12000
TTM_SCR_ALL	152100
TTM_SCR_S	147000
TTM_SCR_SS	151500
TTM_RAT_ACV	10039

