VERSION	0.00.00	1.03.00
FES_MODE	0
BPM_DEF	175.000	175.000	175.000	175.000
MET_DEF	4	4
RESOLUTION	384
CLK_DEF	384
COMPATIBLE_CODE	MA2

BPM	0	0	175.000
MET	0	0	4	4

HLD	6	0	7	144
HLD	6	288	0	144
HLD	7	192	1	144
HLD	8	192	0	144
HLD	9	96	7	144
HLD	10	0	6	144
TAP	11	192	6
TAP	11	288	6
TAP	12	192	7
TAP	12	288	7
TAP	13	192	0
TAP	13	288	0
TAP	14	192	1
TAP	14	288	1
TAP	15	192	2
TAP	15	288	2
TAP	16	192	1
TAP	16	288	1
HLD	17	192	0	144
HLD	18	96	7	144
TAP	19	0	7
TAP	19	96	7
TAP	20	0	6
TAP	20	96	6
TAP	21	0	7
TAP	21	96	7
TAP	22	0	0
TAP	22	96	0
TAP	23	0	1
TAP	23	96	1
TAP	24	0	2
TAP	24	96	2
HLD	25	0	3	192
HLD	25	336	1	144
STR	26	192	7
SI_	26	192	7	96	192	3
HLD	27	288	2	192
HLD	28	288	1	192
HLD	29	288	0	192
TAP	30	288	7
TAP	31	0	7
TAP	31	288	6
TAP	32	0	6
HLD	32	288	7	288
TAP	33	288	7
TAP	33	336	7
TAP	34	48	0
BRK	34	144	0
TAP	35	0	1
TAP	35	192	1
TAP	36	0	2
TAP	36	192	2
TAP	37	0	1
TAP	37	192	1
TAP	38	0	0
TAP	38	192	0
TAP	39	0	7
TAP	39	192	7
TAP	40	0	6
TAP	40	192	6
TAP	41	0	5
TAP	41	192	5
TAP	42	0	6
TAP	42	192	0
TAP	42	192	7
BRK	42	288	0
BRK	42	288	1
TAP	43	0	7
TAP	43	192	6
TAP	44	0	7
TAP	44	192	0
TAP	45	0	1
TAP	45	192	2
TAP	46	0	3
TAP	46	192	4
HLD	46	288	5	288
TAP	47	288	3
TAP	48	0	3
TAP	48	96	1
BRK	48	192	1
TAP	49	0	2
TAP	49	96	2
TAP	49	192	3
TAP	50	0	2
TAP	50	96	2
TAP	50	192	1
TAP	51	0	7
TAP	51	96	7
TAP	51	192	6
TAP	52	0	7
TAP	52	96	7
TAP	52	192	0
TAP	53	0	1
TAP	53	96	1
TAP	53	192	1
TAP	54	0	2
TAP	54	96	2
TAP	54	192	2
TAP	55	0	0
TAP	55	192	6
TAP	56	0	4
TAP	56	192	2
STR	56	288	1
SI_	56	288	1	96	192	4
STR	58	288	5
SI_	58	288	5	96	192	0
HLD	60	288	1	288
HLD	61	288	2	288
HLD	62	288	1	144
HLD	63	192	0	144
HLD	64	96	7	144
HLD	65	96	0	144
HLD	66	0	1	144
HLD	66	288	2	144
HLD	67	192	3	144
HLD	68	96	1	144
HLD	69	0	0	144
HLD	69	288	7	144
HLD	70	288	1	144
HLD	71	192	3	144
HLD	72	96	5	144
HLD	73	0	7	144
STR	73	288	0
SI_	73	288	0	96	192	3
STR	81	288	4
SI_	81	288	4	96	192	7

T_REC_TAP	81
T_REC_BRK	4
T_REC_XTP	0
T_REC_HLD	31
T_REC_XHO	0
T_REC_STR	5
T_REC_BST	0
T_REC_XST	0
T_REC_TTP	0
T_REC_THO	0
T_REC_SLD	5
T_REC_ALL	126
T_NUM_TAP	86
T_NUM_BRK	4
T_NUM_HLD	31
T_NUM_SLD	5
T_NUM_ALL	126
T_JUDGE_TAP	90
T_JUDGE_HLD	109
T_JUDGE_SLD	5
T_JUDGE_ALL	204
TTM_EACHPAIRS	2
TTM_SCR_TAP	43000
TTM_SCR_BRK	10400
TTM_SCR_HLD	31000
TTM_SCR_SLD	7500
TTM_SCR_ALL	91900
TTM_SCR_S	88800
TTM_SCR_SS	91500
TTM_RAT_ACV	10043

