VERSION	0.00.00	1.03.00
FES_MODE	0
BPM_DEF	128.000	128.000	128.000	128.000
MET_DEF	4	4
RESOLUTION	384
CLK_DEF	384
COMPATIBLE_CODE	MA2

BPM	0	0	128.000
MET	0	0	4	4

STR	3	0	0
SI_	3	0	0	96	48	2
STR	3	0	6
SI_	3	0	6	96	48	4
STR	3	96	0
SV_	3	96	0	96	48	3
STR	3	96	6
SV_	3	96	6	96	48	3
STR	4	0	0
SSL	4	0	0	96	48	4
TAP	4	192	3
TAP	4	192	5
TAP	4	240	3
TAP	4	264	5
TAP	4	288	2
TAP	4	312	6
TAP	4	336	1
TAP	4	360	7
STR	5	0	0
SCR	5	0	0	96	96	4
STR	5	96	4
SCR	5	96	4	96	96	0
STR	5	192	0
SI_	5	192	0	96	48	4
STR	6	0	7
SI_	6	0	7	96	48	3
TAP	6	192	2
TAP	6	192	5
TAP	6	240	2
TAP	6	240	5
TAP	6	288	6
TAP	6	312	7
TAP	6	360	1
STR	7	0	0
SUL	7	0	0	96	48	4
TAP	7	48	1
TAP	7	96	2
TAP	7	144	3
STR	7	192	4
SUL	7	192	4	96	48	0
TAP	7	240	5
TAP	7	288	6
TAP	7	336	7
STR	8	0	7
SUR	8	0	7	96	48	3
TAP	8	48	6
TAP	8	96	5
TAP	8	144	4
TAP	8	192	3
TAP	8	192	4
TAP	8	240	2
TAP	8	264	5
TAP	8	288	1
TAP	8	312	6
TAP	8	336	0
TAP	8	360	7
STR	9	0	2
SI_	9	0	2	96	48	7
STR	9	96	5
SI_	9	96	5	96	48	0
TAP	9	288	0
TAP	9	288	7
TAP	9	336	1
STR	9	336	6
SCR	9	336	6	96	240	5
BRK	10	288	0
HLD	11	0	2	48
HLD	11	48	3	48
HLD	11	96	2	48
HLD	11	144	3	48
HLD	11	192	1	192
TAP	11	240	0
TAP	11	288	7
TAP	11	336	6
HLD	12	0	5	48
HLD	12	48	4	48
HLD	12	96	5	48
HLD	12	144	4	48
HLD	12	192	6	96
TAP	12	240	7
TAP	12	288	0
HLD	13	0	6	48
HLD	13	48	7	48
HLD	13	96	6	48
HLD	13	144	7	48
HLD	13	192	5	192
TAP	13	240	4
TAP	13	288	3
TAP	13	336	2
HLD	14	0	1	48
HLD	14	48	0	48
HLD	14	96	1	48
HLD	14	144	0	48
HLD	14	192	2	48
TAP	14	240	3
TAP	14	288	0
TAP	14	288	5
STR	15	0	1
SI_	15	0	1	96	48	3
STR	15	48	0
SI_	15	48	0	96	48	4
TAP	15	96	1
TAP	15	144	0
STR	15	192	7
SI_	15	192	7	96	48	3
STR	15	240	6
SI_	15	240	6	96	48	4
TAP	15	288	7
TAP	15	336	6
STR	16	0	3
SCR	16	0	3	96	48	6
TAP	16	48	2
TAP	16	96	1
TAP	16	144	0
STR	16	192	7
SCR	16	192	7	96	48	2
TAP	16	240	6
TAP	16	288	5
STR	17	0	6
SI_	17	0	6	96	48	4
STR	17	48	7
SI_	17	48	7	96	48	3
TAP	17	96	6
TAP	17	144	7
STR	17	192	0
SI_	17	192	0	96	48	4
STR	17	240	1
SI_	17	240	1	96	48	3
TAP	17	288	0
TAP	17	336	1
STR	18	0	4
SCL	18	0	4	96	48	1
TAP	18	48	5
TAP	18	96	6
TAP	18	144	7
STR	18	192	0
SCL	18	192	0	96	48	5
TAP	18	240	1
BRK	18	288	2
STR	19	0	0
SI_	19	0	0	96	48	4
TAP	19	48	0
STR	19	96	6
SI_	19	96	6	96	48	2
TAP	19	144	6
STR	19	192	1
SI_	19	192	1	96	48	5
TAP	19	240	1
STR	19	288	7
SI_	19	288	7	96	48	3
TAP	19	336	7
STR	20	0	2
SI_	20	0	2	96	48	7
TAP	20	48	2
STR	20	96	3
SI_	20	96	3	96	48	6
TAP	20	144	3
STR	20	192	4
SI_	20	192	4	96	48	1
TAP	20	240	4
TAP	20	288	5
STR	21	0	7
SI_	21	0	7	96	48	3
TAP	21	48	7
STR	21	96	1
SI_	21	96	1	96	48	5
TAP	21	144	1
STR	21	192	6
SI_	21	192	6	96	48	2
TAP	21	240	6
STR	21	288	0
SI_	21	288	0	96	48	4
TAP	21	336	0
STR	22	0	5
SI_	22	0	5	96	48	0
TAP	22	48	5
STR	22	96	4
SI_	22	96	4	96	48	1
TAP	22	144	4
STR	22	192	3
SI_	22	192	3	96	48	6
TAP	22	240	3
TAP	22	288	2
STR	23	0	3
SI_	23	0	3	96	48	0
STR	23	48	3
SI_	23	48	3	96	48	6
TAP	23	96	3
TAP	23	144	3
STR	23	192	7
SI_	23	192	7	96	48	2
STR	23	240	7
SI_	23	240	7	96	48	4
TAP	23	288	7
TAP	23	336	7
STR	24	0	0
SI_	24	0	0	96	48	3
STR	24	48	0
SI_	24	48	0	96	48	5
TAP	24	96	0
TAP	24	144	0
STR	24	192	4
SI_	24	192	4	96	48	1
TAP	24	240	4
TAP	24	288	4
STR	25	0	0
SI_	25	0	0	96	48	5
STR	25	0	7
SI_	25	0	7	96	48	2
TAP	25	48	0
TAP	25	48	7
HLD	25	192	0	48
HLD	25	192	1	48
HLD	25	264	4	48
HLD	25	264	5	48
HLD	25	336	2	48
HLD	25	336	3	48
TAP	26	48	6
TAP	26	48	7
TAP	26	96	1
TAP	26	96	6
STR	26	192	7
SI_	26	192	7	96	48	3
TAP	26	240	1
TAP	26	240	5
BRK	26	288	0
STR	27	0	1
SI_	27	0	1	96	48	5
TAP	27	72	1
STR	27	72	6
SCR	27	72	6	96	120	2
HLD	27	144	6	144
TAP	27	336	6
STR	28	0	6
SI_	28	0	6	96	48	2
STR	28	72	1
SCL	28	72	1	96	120	5
TAP	28	72	6
HLD	28	144	1	144
STR	28	336	2
SV_	28	336	2	96	48	0
STR	29	0	0
SCR	29	0	0	96	48	4
TAP	29	48	7
TAP	29	72	7
STR	29	144	5
SV_	29	144	5	96	48	7
STR	29	192	7
SCL	29	192	7	96	48	3
TAP	29	240	0
TAP	29	264	0
TAP	29	336	1
TAP	30	0	6
STR	30	48	6
SUR	30	48	6	96	96	1
STR	30	144	1
SCL	30	144	1	96	96	3
TAP	30	336	1
STR	31	0	1
SCL	31	0	1	96	48	6
TAP	31	72	1
STR	31	72	5
SCR	31	72	5	96	120	2
HLD	31	144	5	144
TAP	31	336	6
STR	32	0	6
SCR	32	0	6	96	48	1
STR	32	72	2
SCL	32	72	2	96	120	5
TAP	32	72	6
HLD	32	144	2	144
STR	32	336	0
SUR	32	336	0	96	48	4
STR	32	336	4
SUR	32	336	4	96	48	0
TAP	33	0	0
TAP	33	0	4
STR	33	144	0
SCL	33	144	0	96	48	5
STR	33	144	4
SCL	33	144	4	96	48	1
TAP	33	192	0
TAP	33	192	4
STR	33	336	1
SUR	33	336	1	96	48	5
STR	33	336	5
SUR	33	336	5	96	48	1
TAP	34	0	1
TAP	34	0	5
STR	34	144	1
SCL	34	144	1	96	48	6
STR	34	144	5
SCL	34	144	5	96	48	2
TAP	34	240	1
TAP	34	240	5
TAP	34	336	1
TAP	34	336	5
TAP	35	0	2
TAP	35	0	6
TAP	35	48	0
TAP	35	72	0
TAP	35	120	2
TAP	35	144	2
TAP	35	192	4
TAP	35	216	4
TAP	35	264	6
TAP	35	288	6
TAP	35	336	2
TAP	35	336	6
TAP	36	0	1
TAP	36	0	5
TAP	36	48	7
TAP	36	72	7
TAP	36	120	5
TAP	36	144	5
TAP	36	192	3
TAP	36	216	3
TAP	36	264	1
TAP	36	288	1
TAP	36	336	0
TAP	36	336	7
TAP	37	0	1
TAP	37	0	6
TAP	37	48	0
HLD	37	72	0	72
TAP	37	120	2
HLD	37	144	2	72
TAP	37	192	4
HLD	37	216	4	72
TAP	37	264	6
HLD	37	288	6	48
TAP	37	336	0
TAP	38	0	1
TAP	38	0	6
TAP	38	48	7
HLD	38	72	7	72
TAP	38	120	5
HLD	38	144	5	72
TAP	38	192	3
HLD	38	216	3	72
TAP	38	264	1
HLD	38	288	1	48
TAP	38	336	7
TAP	39	0	1
TAP	39	0	6
STR	39	48	1
SI_	39	48	1	96	24	5
TAP	39	72	1
STR	39	120	6
SI_	39	120	6	96	24	2
TAP	39	144	6
TAP	39	192	0
TAP	39	216	0
TAP	39	264	7
TAP	39	288	7
TAP	39	336	0
TAP	39	336	7
TAP	40	0	1
TAP	40	0	6
STR	40	48	6
SI_	40	48	6	96	24	2
TAP	40	72	6
STR	40	120	1
SI_	40	120	1	96	24	5
TAP	40	144	1
TAP	40	192	7
TAP	40	216	7
TAP	40	264	0
TAP	40	288	0
STR	40	336	0
SCL	40	336	0	96	48	5
STR	41	0	5
SUL	41	0	5	96	48	4
STR	41	144	7
SCR	41	144	7	96	48	2
STR	41	192	2
SUR	41	192	2	96	48	3
STR	41	336	0
SCR	41	336	0	96	24	3
STR	42	0	4
SCR	42	0	4	96	24	7
STR	42	144	3
SUL	42	144	3	96	96	7
STR	42	144	7
SUL	42	144	7	96	96	3
STR	42	240	3
SCR	42	240	3	96	336	0
STR	42	240	7
SCR	42	240	7	96	336	4

T_REC_TAP	174
T_REC_BRK	3
T_REC_XTP	0
T_REC_HLD	38
T_REC_XHO	0
T_REC_STR	87
T_REC_BST	0
T_REC_XST	0
T_REC_TTP	0
T_REC_THO	0
T_REC_SLD	87
T_REC_ALL	389
T_NUM_TAP	261
T_NUM_BRK	3
T_NUM_HLD	38
T_NUM_SLD	87
T_NUM_ALL	389
T_JUDGE_TAP	264
T_JUDGE_HLD	59
T_JUDGE_SLD	87
T_JUDGE_ALL	410
TTM_EACHPAIRS	41
TTM_SCR_TAP	130500
TTM_SCR_BRK	7800
TTM_SCR_HLD	38000
TTM_SCR_SLD	130500
TTM_SCR_ALL	306800
TTM_SCR_S	297350
TTM_SCR_SS	306500
TTM_RAT_ACV	10009

