VERSION	0.00.00	1.03.00
FES_MODE	0
BPM_DEF	128.000	128.000	128.000	128.000
MET_DEF	4	4
RESOLUTION	384
CLK_DEF	384
COMPATIBLE_CODE	MA2

BPM	0	0	128.000
MET	0	0	4	4

TAP	3	0	4
TAP	3	0	6
TAP	3	96	5
TAP	3	192	1
TAP	3	192	3
TAP	3	288	2
TAP	4	0	4
TAP	4	0	6
TAP	4	96	5
TAP	4	192	1
STR	4	192	3
SCR	4	192	3	96	48	6
TAP	4	288	2
TAP	5	0	4
TAP	5	0	6
TAP	5	96	5
TAP	5	192	1
TAP	5	192	3
TAP	5	288	2
TAP	6	0	4
TAP	6	0	6
TAP	6	96	5
TAP	6	192	1
STR	6	192	3
SCR	6	192	3	96	48	6
TAP	6	240	3
TAP	7	0	4
TAP	7	0	6
TAP	7	96	5
TAP	7	192	1
TAP	7	192	3
TAP	7	288	2
TAP	8	0	4
TAP	8	0	6
TAP	8	96	5
STR	8	192	1
SCL	8	192	1	96	48	6
TAP	8	192	3
TAP	9	0	4
TAP	9	0	6
TAP	9	96	5
TAP	9	192	1
TAP	9	192	3
STR	9	288	0
SCR	9	288	0	96	96	3
STR	9	288	7
SCL	9	288	7	96	96	4
TAP	9	336	0
TAP	9	336	7
HLD	11	0	7	48
TAP	11	48	6
HLD	11	96	0	48
TAP	11	144	1
HLD	11	192	7	48
STR	11	240	6
SCR	11	240	6	96	48	1
TAP	11	288	6
HLD	12	0	7	48
TAP	12	48	6
HLD	12	96	0	48
TAP	12	144	1
HLD	12	192	7	48
TAP	12	240	6
HLD	12	288	0	48
TAP	12	336	1
HLD	13	0	3	48
TAP	13	48	2
HLD	13	96	4	48
TAP	13	144	5
HLD	13	192	3	48
STR	13	240	2
SCR	13	240	2	96	48	5
TAP	13	288	3
HLD	14	0	3	48
TAP	14	48	2
HLD	14	96	4	48
TAP	14	144	5
HLD	14	192	3	48
TAP	14	240	2
TAP	14	288	4
TAP	14	288	5
HLD	15	0	7	48
TAP	15	48	5
HLD	15	96	5	48
TAP	15	144	3
HLD	15	192	3	48
TAP	15	240	1
HLD	15	288	1	48
TAP	15	336	0
HLD	16	0	0	48
TAP	16	48	2
HLD	16	96	2	48
TAP	16	144	4
HLD	16	192	4	48
TAP	16	240	6
HLD	16	288	6	48
TAP	16	336	7
HLD	17	0	7	48
TAP	17	48	5
HLD	17	96	3	48
TAP	17	144	1
HLD	17	192	7	48
TAP	17	240	5
HLD	17	288	3	48
TAP	17	336	1
HLD	18	0	0	48
TAP	18	48	2
HLD	18	96	4	48
TAP	18	144	6
HLD	18	192	0	48
TAP	18	240	2
BRK	18	288	0
STR	19	0	7
SCL	19	0	7	96	48	4
STR	19	48	7
SI_	19	48	7	96	48	3
HLD	19	192	7	48
TAP	19	240	6
TAP	19	288	0
HLD	19	336	1	96
TAP	20	48	0
HLD	20	96	0	48
TAP	20	144	1
STR	20	192	1
SI_	20	192	1	96	48	5
STR	20	240	5
SI_	20	240	5	96	48	2
STR	21	0	0
SCR	21	0	0	96	48	3
STR	21	48	0
SI_	21	48	0	96	48	4
HLD	21	192	0	48
TAP	21	240	1
TAP	21	288	7
HLD	21	336	6	96
TAP	22	48	7
HLD	22	96	7	48
TAP	22	144	6
STR	22	192	6
SI_	22	192	6	96	48	2
STR	22	240	2
SI_	22	240	2	96	48	5
HLD	23	0	7	48
HLD	23	48	6	48
HLD	23	96	5	48
HLD	23	144	4	48
HLD	23	192	3	48
HLD	23	240	2	48
HLD	23	288	1	48
HLD	23	336	0	96
HLD	24	48	2	48
HLD	24	96	4	48
HLD	24	144	6	48
STR	24	191	7
SCR	24	191	7	96	49	2
STR	24	240	2
SI_	24	240	2	96	48	5
HLD	25	0	4	48
HLD	25	48	6	48
HLD	25	96	0	48
HLD	25	144	2	48
HLD	25	192	3	48
HLD	25	240	1	48
HLD	25	288	7	48
HLD	25	336	5	144
TAP	26	192	2
TAP	26	192	3
HLD	26	288	7	96
HLD	27	0	0	72
STR	27	72	1
SI_	27	72	1	96	120	4
HLD	27	144	1	144
HLD	27	336	0	48
HLD	28	0	7	72
STR	28	72	6
SI_	28	72	6	96	120	3
HLD	28	144	6	144
STR	28	336	0
SCL	28	336	0	96	48	5
STR	28	336	3
SCL	28	336	3	96	48	0
TAP	29	0	0
TAP	29	0	3
STR	29	144	4
SCR	29	144	4	96	48	7
STR	29	144	7
SCR	29	144	7	96	48	2
TAP	29	192	4
TAP	29	192	7
STR	29	336	4
SI_	29	336	4	96	48	0
STR	30	0	0
SCR	30	0	0	96	192	3
HLD	30	144	5	144
HLD	30	336	2	48
HLD	31	0	1	72
STR	31	72	0
SCL	31	72	0	96	120	5
HLD	31	144	0	144
HLD	31	336	5	48
HLD	32	0	6	72
STR	32	72	7
SCR	32	72	7	96	120	2
HLD	32	144	7	144
STR	33	0	1
SI_	33	0	1	96	48	6
STR	33	0	2
SCL	33	0	2	96	48	7
STR	33	192	5
SCR	33	192	5	96	48	0
STR	33	192	6
SI_	33	192	6	96	48	1
STR	34	0	1
SI_	34	0	1	96	48	6
STR	34	0	2
SCL	34	0	2	96	48	7
STR	34	192	5
SCR	34	192	5	96	48	0
STR	34	192	6
SI_	34	192	6	96	48	1
HLD	35	0	7	72
HLD	35	72	0	72
HLD	35	144	1	72
HLD	35	216	2	72
HLD	35	288	3	48
TAP	35	336	4
HLD	36	0	0	72
HLD	36	72	7	72
HLD	36	144	6	72
HLD	36	216	5	72
HLD	36	288	4	48
TAP	36	336	3
HLD	37	0	2	72
HLD	37	72	1	72
HLD	37	144	0	72
HLD	37	216	7	72
HLD	37	288	6	48
TAP	37	336	5
HLD	38	0	5	72
HLD	38	72	6	72
HLD	38	144	7	72
HLD	38	216	0	72
HLD	38	288	1	48
TAP	38	336	2
TAP	39	0	5
TAP	39	48	5
TAP	39	72	6
TAP	39	120	6
TAP	39	144	7
TAP	39	192	7
TAP	39	216	0
TAP	39	264	0
TAP	39	288	7
TAP	39	312	0
TAP	39	336	7
TAP	40	0	1
TAP	40	48	1
TAP	40	72	2
TAP	40	120	2
TAP	40	144	3
TAP	40	192	3
TAP	40	216	4
TAP	40	264	4
TAP	40	288	3
TAP	40	312	4
STR	40	336	3
SCR	40	336	3	96	96	6
TAP	41	0	3
STR	41	144	4
SCL	41	144	4	96	96	1
TAP	41	192	4
STR	41	336	6
SCR	41	336	6	96	96	1
HLD	42	0	6	72
TAP	42	144	6
STR	42	240	0
SCR	42	240	0	96	240	3
STR	42	240	7
SCL	42	240	7	96	240	4

T_REC_TAP	111
T_REC_BRK	1
T_REC_XTP	0
T_REC_HLD	87
T_REC_XHO	0
T_REC_STR	40
T_REC_BST	0
T_REC_XST	0
T_REC_TTP	0
T_REC_THO	0
T_REC_SLD	40
T_REC_ALL	279
T_NUM_TAP	151
T_NUM_BRK	1
T_NUM_HLD	87
T_NUM_SLD	40
T_NUM_ALL	279
T_JUDGE_TAP	152
T_JUDGE_HLD	124
T_JUDGE_SLD	40
T_JUDGE_ALL	316
TTM_EACHPAIRS	27
TTM_SCR_TAP	75500
TTM_SCR_BRK	2600
TTM_SCR_HLD	87000
TTM_SCR_SLD	60000
TTM_SCR_ALL	225100
TTM_SCR_S	218250
TTM_SCR_SS	225000
TTM_RAT_ACV	10004

