VERSION	0.00.00	1.03.00
FES_MODE	0
BPM_DEF	128.000	128.000	128.000	128.000
MET_DEF	4	4
RESOLUTION	384
CLK_DEF	384
COMPATIBLE_CODE	MA2

BPM	0	0	128.000
MET	0	0	4	4

HLD	3	0	4	96
HLD	3	192	4	96
HLD	4	0	3	96
HLD	4	192	3	96
HLD	5	0	5	96
TAP	5	96	4
HLD	5	192	5	96
TAP	5	288	4
HLD	6	0	2	96
TAP	6	96	3
HLD	6	192	2	96
TAP	6	288	3
HLD	7	0	5	96
TAP	7	0	6
TAP	7	96	4
TAP	7	192	4
HLD	7	192	5	96
TAP	7	288	6
TAP	8	0	1
HLD	8	0	2	96
TAP	8	96	3
HLD	8	192	2	96
TAP	8	192	3
TAP	8	288	1
HLD	9	0	5	96
TAP	9	0	6
TAP	9	96	4
TAP	9	192	1
HLD	9	192	2	96
TAP	9	288	3
STR	9	336	3
SI_	9	336	3	96	144	7
BRK	10	288	4
HLD	11	0	1	48
HLD	11	96	7	48
HLD	11	192	6	48
HLD	11	288	0	48
HLD	11	336	4	96
HLD	12	96	2	48
HLD	12	192	3	48
TAP	12	288	5
HLD	13	0	6	48
HLD	13	96	0	48
HLD	13	192	1	48
HLD	13	288	7	48
HLD	13	336	3	96
HLD	14	96	5	48
HLD	14	192	4	48
TAP	14	288	2
HLD	15	0	1	48
HLD	15	96	7	48
HLD	15	192	6	48
HLD	15	288	0	48
HLD	15	336	4	48
TAP	16	48	4
TAP	16	96	2
TAP	16	144	2
TAP	16	192	3
TAP	16	240	3
TAP	16	288	5
HLD	17	0	6	48
HLD	17	96	0	48
HLD	17	192	1	48
HLD	17	288	7	48
HLD	17	336	3	48
TAP	18	48	3
TAP	18	96	5
TAP	18	144	5
TAP	18	192	4
TAP	18	240	4
BRK	18	288	2
BRK	18	288	3
TAP	19	0	1
TAP	19	48	7
TAP	19	96	7
TAP	19	144	6
TAP	19	192	6
TAP	19	240	0
TAP	19	288	0
HLD	19	336	4	96
TAP	20	48	2
HLD	20	96	2	48
TAP	20	144	3
HLD	20	192	3	48
TAP	20	240	5
TAP	20	288	4
TAP	20	288	5
TAP	21	0	6
TAP	21	48	0
TAP	21	96	0
TAP	21	144	1
TAP	21	192	1
TAP	21	240	7
TAP	21	288	7
HLD	21	336	3	96
TAP	22	48	5
HLD	22	96	5	48
TAP	22	144	4
HLD	22	192	4	48
TAP	22	240	2
TAP	22	288	2
TAP	22	288	3
HLD	23	0	1	48
TAP	23	48	7
HLD	23	96	7	48
TAP	23	144	6
HLD	23	192	6	48
TAP	23	240	0
HLD	23	288	0	48
HLD	23	336	4	96
TAP	24	48	2
HLD	24	96	2	48
TAP	24	144	3
HLD	24	192	3	48
TAP	24	240	5
TAP	24	288	4
TAP	24	288	5
HLD	25	0	6	144
HLD	25	48	0	144
HLD	25	192	7	96
HLD	25	240	1	240
BRK	25	336	0
TAP	26	48	0
HLD	26	96	0	96
TAP	26	144	7
HLD	26	192	7	96
TAP	26	240	6
STR	26	288	6
SCR	26	288	6	96	48	1
STR	27	96	2
SCR	27	96	2	96	48	5
STR	27	288	0
SCR	27	288	0	96	48	3
STR	28	96	4
SCR	28	96	4	96	48	7
TAP	28	336	7
STR	29	0	7
SI_	29	0	7	96	48	4
TAP	29	144	0
STR	29	192	0
SI_	29	192	0	96	48	3
TAP	29	336	5
STR	30	0	5
SI_	30	0	5	96	48	1
TAP	30	144	2
STR	30	192	2
SI_	30	192	2	96	48	6
TAP	31	0	0
TAP	31	0	5
TAP	31	72	1
TAP	31	72	6
STR	31	144	2
SI_	31	144	2	96	48	5
STR	31	144	7
SI_	31	144	7	96	48	4
TAP	32	0	2
TAP	32	0	7
TAP	32	72	1
TAP	32	72	6
STR	32	144	0
SI_	32	144	0	96	48	3
STR	32	144	5
SI_	32	144	5	96	48	2
TAP	32	336	5
STR	32	336	6
SI_	32	336	6	96	48	2
HLD	33	0	5	72
TAP	33	0	6
STR	33	144	1
SI_	33	144	1	96	48	5
TAP	33	144	2
TAP	33	192	1
HLD	33	192	2	72
TAP	33	336	4
STR	33	336	7
SI_	33	336	7	96	48	3
HLD	34	0	4	72
TAP	34	0	7
STR	34	144	0
SI_	34	144	0	96	48	4
TAP	34	144	3
TAP	34	192	0
HLD	34	192	3	72
STR	35	0	1
SI_	35	0	1	96	48	5
TAP	35	72	0
STR	35	144	7
SCR	35	144	7	96	48	2
TAP	35	288	7
STR	36	0	7
SCL	36	0	7	96	48	4
TAP	36	96	0
STR	36	192	0
SCR	36	192	0	96	48	3
TAP	36	240	0
STR	37	0	6
SI_	37	0	6	96	48	2
TAP	37	72	7
STR	37	144	0
SCL	37	144	0	96	48	5
TAP	37	288	0
STR	38	0	0
SCR	38	0	0	96	48	3
TAP	38	96	7
STR	38	192	7
SCL	38	192	7	96	48	4
TAP	38	240	7
STR	39	0	1
SI_	39	0	1	96	48	5
TAP	39	72	0
STR	39	144	7
SCR	39	144	7	96	48	2
TAP	39	288	7
STR	40	0	7
SCL	40	0	7	96	48	4
TAP	40	96	0
STR	40	192	0
SCR	40	192	0	96	48	3
TAP	40	240	0
STR	41	0	7
SI_	41	0	7	96	48	4
HLD	41	72	6	72
STR	41	192	0
SI_	41	192	0	96	48	3
HLD	41	264	1	72
HLD	42	0	7	72
HLD	42	72	5	72
HLD	42	144	0	624
STR	42	240	2
SCR	42	240	2	96	240	5

T_REC_TAP	96
T_REC_BRK	4
T_REC_XTP	0
T_REC_HLD	66
T_REC_XHO	0
T_REC_STR	32
T_REC_BST	0
T_REC_XST	0
T_REC_TTP	0
T_REC_THO	0
T_REC_SLD	32
T_REC_ALL	230
T_NUM_TAP	128
T_NUM_BRK	4
T_NUM_HLD	66
T_NUM_SLD	32
T_NUM_ALL	230
T_JUDGE_TAP	132
T_JUDGE_HLD	116
T_JUDGE_SLD	32
T_JUDGE_ALL	280
TTM_EACHPAIRS	24
TTM_SCR_TAP	64000
TTM_SCR_BRK	10400
TTM_SCR_HLD	66000
TTM_SCR_SLD	48000
TTM_SCR_ALL	188400
TTM_SCR_S	182400
TTM_SCR_SS	188000
TTM_RAT_ACV	10021

