VERSION	0.00.00	1.03.00
FES_MODE	0
BPM_DEF	128.000	128.000	128.000	128.000
MET_DEF	4	4
RESOLUTION	384
CLK_DEF	384
COMPATIBLE_CODE	MA2

BPM	0	0	128.000
MET	0	0	4	4

TAP	3	0	0
TAP	3	192	0
TAP	4	0	2
TAP	4	192	2
TAP	5	0	4
TAP	5	192	6
TAP	6	0	7
TAP	6	192	6
TAP	7	0	5
TAP	7	192	4
TAP	8	0	3
TAP	8	192	2
TAP	9	0	1
TAP	9	192	0
HLD	9	336	7	240
BRK	10	288	7
TAP	11	0	0
TAP	11	96	0
TAP	11	192	1
TAP	11	288	1
TAP	12	0	0
TAP	12	96	7
STR	12	192	0
SI_	12	192	0	96	48	3
TAP	13	0	7
TAP	13	96	7
TAP	13	192	6
TAP	13	288	6
TAP	14	0	7
TAP	14	96	0
STR	14	192	7
SI_	14	192	7	96	48	4
TAP	15	0	0
TAP	15	96	1
TAP	15	192	2
TAP	15	288	3
TAP	16	0	4
TAP	16	96	5
STR	16	192	6
SI_	16	192	6	96	48	2
TAP	17	0	7
TAP	17	96	6
TAP	17	192	5
TAP	17	288	4
TAP	18	0	3
TAP	18	96	2
TAP	18	96	3
TAP	18	192	5
TAP	18	192	6
BRK	18	288	0
BRK	18	288	1
TAP	19	0	7
TAP	19	96	5
TAP	19	192	3
TAP	19	288	4
TAP	19	336	4
TAP	20	48	6
TAP	20	96	6
STR	20	192	7
SI_	20	192	7	96	48	4
TAP	21	0	0
TAP	21	96	2
TAP	21	192	4
TAP	21	288	3
TAP	21	336	3
TAP	22	48	1
TAP	22	96	1
STR	22	192	0
SI_	22	192	0	96	48	3
TAP	23	0	7
TAP	23	96	7
TAP	23	192	6
TAP	23	288	5
TAP	23	336	4
TAP	24	48	4
TAP	24	96	5
STR	24	192	0
SI_	24	192	0	96	48	3
TAP	25	0	0
TAP	25	96	0
TAP	25	192	1
TAP	25	288	2
TAP	25	336	3
TAP	26	48	3
TAP	26	96	2
TAP	26	192	4
TAP	26	240	5
BRK	26	288	6
BRK	26	288	7
TAP	27	0	7
TAP	27	72	6
HLD	27	144	5	144
TAP	27	288	4
TAP	28	0	7
TAP	28	72	0
HLD	28	144	1	144
TAP	28	288	2
STR	29	0	6
SCL	29	0	6	96	48	3
STR	29	192	0
SCR	29	192	0	96	48	3
STR	30	0	0
SCL	30	0	0	96	48	5
STR	30	192	0
SCR	30	192	0	96	48	3
TAP	31	0	7
TAP	31	72	6
HLD	31	144	5	144
TAP	31	288	4
TAP	32	0	3
TAP	32	72	2
HLD	32	144	1	144
TAP	32	288	0
STR	33	0	1
SCR	33	0	1	96	48	4
STR	33	192	7
SCL	33	192	7	96	48	4
STR	34	0	7
SCR	34	0	7	96	48	2
STR	34	192	7
SCL	34	192	7	96	48	4
TAP	35	0	0
TAP	35	72	7
HLD	35	144	6	528
TAP	35	288	7
TAP	36	0	0
TAP	36	96	1
TAP	36	192	2
BRK	36	288	3
TAP	37	0	2
TAP	37	72	1
HLD	37	144	0	528
TAP	37	288	1
TAP	38	0	2
TAP	38	96	3
TAP	38	192	4
BRK	38	288	5
TAP	39	0	4
TAP	39	72	3
HLD	39	144	2	528
TAP	39	288	3
TAP	40	0	4
TAP	40	96	5
TAP	40	192	6
BRK	40	288	7
TAP	41	0	0
TAP	41	72	2
TAP	41	144	0
TAP	41	192	0
TAP	41	264	6
TAP	41	336	4
TAP	42	0	4
TAP	42	72	3
TAP	42	144	1
TAP	42	144	2
STR	42	240	0
SCR	42	240	0	96	336	3
STR	42	240	7
SI_	42	240	7	96	336	4

T_REC_TAP	111
T_REC_BRK	8
T_REC_XTP	0
T_REC_HLD	8
T_REC_XHO	0
T_REC_STR	16
T_REC_BST	0
T_REC_XST	0
T_REC_TTP	0
T_REC_THO	0
T_REC_SLD	16
T_REC_ALL	159
T_NUM_TAP	127
T_NUM_BRK	8
T_NUM_HLD	8
T_NUM_SLD	16
T_NUM_ALL	159
T_JUDGE_TAP	135
T_JUDGE_HLD	50
T_JUDGE_SLD	16
T_JUDGE_ALL	201
TTM_EACHPAIRS	6
TTM_SCR_TAP	63500
TTM_SCR_BRK	20800
TTM_SCR_HLD	8000
TTM_SCR_SLD	24000
TTM_SCR_ALL	116300
TTM_SCR_S	112050
TTM_SCR_SS	115500
TTM_RAT_ACV	10069

