VERSION	0.00.00	1.03.00
FES_MODE	0
BPM_DEF	137.000	137.000	137.000	137.000
MET_DEF	4	4
RESOLUTION	384
CLK_DEF	384
COMPATIBLE_CODE	MA2

BPM	0	0	137.000
MET	0	0	4	4

TAP	3	0	0
TAP	3	48	7
HLD	3	96	6	144
TAP	3	144	5
TAP	3	192	4
HLD	3	240	3	144
TAP	4	0	2
TAP	4	48	1
HLD	4	96	0	144
TAP	4	144	7
TAP	4	192	6
HLD	4	240	5	144
TAP	5	0	4
TAP	5	48	3
HLD	5	96	2	144
TAP	5	144	4
TAP	5	192	5
HLD	5	240	6	144
TAP	6	0	7
TAP	6	48	0
HLD	6	96	1	144
TAP	6	144	2
TAP	6	192	3
HLD	6	240	4	144
TAP	7	0	3
TAP	7	48	2
STR	7	96	1
SCR	7	96	1	96	144	4
TAP	7	144	0
TAP	7	192	7
HLD	7	240	6	96
TAP	8	0	5
TAP	8	48	4
STR	8	96	3
SCR	8	96	3	96	144	6
TAP	8	144	2
TAP	8	192	1
HLD	8	240	0	96
TAP	9	0	0
TAP	9	48	1
STR	9	96	2
SCL	9	96	2	96	144	7
TAP	9	144	3
TAP	9	192	4
HLD	9	240	5	96
TAP	10	0	6
TAP	10	48	7
STR	10	96	0
SCL	10	96	0	96	144	5
TAP	10	144	1
TAP	10	192	2
HLD	10	240	3	96
STR	11	0	3
SCL	11	0	3	96	480	4
STR	11	0	4
SCR	11	0	4	96	480	3
BRK	12	288	0
BRK	12	312	7
BRK	12	336	1
TAP	13	0	2
TAP	13	48	2
TAP	13	72	3
TAP	13	96	2
TAP	13	144	2
HLD	13	192	3	48
TAP	13	240	4
TAP	13	264	3
TAP	13	288	2
TAP	13	312	3
TAP	13	336	4
TAP	14	0	5
TAP	14	48	5
TAP	14	72	4
TAP	14	96	5
TAP	14	144	5
HLD	14	192	4	48
TAP	14	240	3
TAP	14	264	4
TAP	14	288	5
TAP	14	312	4
TAP	14	336	3
TAP	14	360	3
TAP	15	0	2
TAP	15	48	2
TAP	15	72	3
TAP	15	96	2
TAP	15	144	2
HLD	15	192	3	48
TAP	15	240	4
TAP	15	264	3
TAP	15	288	2
TAP	15	312	3
TAP	15	336	4
TAP	16	0	5
TAP	16	48	5
TAP	16	72	4
TAP	16	96	5
TAP	16	144	5
HLD	16	192	4	48
TAP	16	240	3
TAP	16	264	4
TAP	16	288	5
TAP	16	312	6
TAP	16	336	7
TAP	16	360	0
TAP	17	0	1
TAP	17	48	1
TAP	17	72	0
TAP	17	96	1
TAP	17	144	1
HLD	17	192	0	48
TAP	17	240	7
TAP	17	264	0
TAP	17	288	1
TAP	17	312	0
TAP	17	336	7
TAP	18	0	6
TAP	18	48	6
TAP	18	72	7
TAP	18	96	6
TAP	18	144	6
HLD	18	192	7	48
TAP	18	240	0
TAP	18	264	7
TAP	18	288	6
TAP	18	312	7
TAP	18	336	0
TAP	18	360	0
TAP	19	0	1
TAP	19	48	1
TAP	19	72	0
TAP	19	96	1
TAP	19	144	1
HLD	19	192	0	48
TAP	19	240	7
TAP	19	264	0
TAP	19	288	1
TAP	19	312	0
TAP	19	336	7
TAP	20	0	6
TAP	20	48	6
TAP	20	72	7
TAP	20	96	6
TAP	20	144	6
STR	20	192	0
SF_	20	192	0	96	48	4
TAP	20	240	0
TAP	20	264	0
TAP	21	0	2
TAP	21	48	2
TAP	21	72	3
TAP	21	96	1
TAP	21	96	4
TAP	21	144	2
TAP	21	192	2
TAP	21	240	2
TAP	21	264	3
TAP	21	288	1
TAP	21	288	4
TAP	21	312	3
TAP	21	336	2
TAP	22	0	5
TAP	22	48	5
TAP	22	72	4
TAP	22	96	3
TAP	22	96	5
TAP	22	144	5
TAP	22	192	5
TAP	22	240	5
TAP	22	264	4
TAP	22	288	3
TAP	22	288	6
TAP	22	312	4
TAP	22	336	5
TAP	22	360	4
TAP	23	0	6
TAP	23	48	6
TAP	23	72	7
TAP	23	96	0
TAP	23	96	6
TAP	23	144	6
TAP	23	192	6
TAP	23	240	6
TAP	23	264	7
TAP	23	288	0
TAP	23	288	5
TAP	23	312	7
TAP	23	336	6
TAP	24	0	1
TAP	24	48	1
TAP	24	72	0
TAP	24	96	1
TAP	24	96	7
TAP	24	144	1
TAP	24	192	1
TAP	24	240	2
TAP	24	240	6
TAP	24	288	0
TAP	24	288	4
TAP	25	0	6
TAP	25	48	6
TAP	25	72	7
TAP	25	96	0
TAP	25	96	5
TAP	25	144	4
TAP	25	192	5
TAP	25	240	5
TAP	25	264	4
TAP	25	288	3
TAP	25	288	6
TAP	25	312	2
TAP	25	336	3
TAP	26	0	1
TAP	26	48	1
TAP	26	72	0
TAP	26	96	2
TAP	26	96	7
TAP	26	144	3
TAP	26	192	2
TAP	26	240	2
TAP	26	264	3
TAP	26	288	1
TAP	26	288	4
TAP	26	312	3
TAP	26	336	2
TAP	26	360	3
TAP	27	0	2
TAP	27	0	4
TAP	27	48	5
TAP	27	72	4
TAP	27	96	3
TAP	27	96	5
TAP	27	144	2
TAP	27	168	3
TAP	27	192	1
TAP	27	192	4
TAP	27	240	6
TAP	27	264	4
TAP	27	288	3
TAP	27	288	7
TAP	27	336	1
TAP	27	336	5
TAP	28	0	2
TAP	28	24	2
TAP	28	48	4
TAP	28	72	4
TAP	28	96	6
TAP	28	120	6
TAP	28	144	0
TAP	28	168	0
TAP	28	192	2
BRK	28	240	1
BRK	28	240	5
BRK	28	288	3
BRK	28	288	7
STR	29	0	0
SI_	29	0	0	96	48	4
TAP	29	48	6
TAP	29	72	0
TAP	29	96	7
TAP	29	144	7
STR	29	192	7
SI_	29	192	7	96	48	3
TAP	29	240	1
TAP	29	264	7
TAP	29	288	0
TAP	29	336	0
STR	30	0	2
SI_	30	0	2	96	48	4
TAP	30	48	2
TAP	30	72	2
STR	30	96	6
SI_	30	96	6	96	48	3
TAP	30	144	6
TAP	30	168	6
TAP	30	192	0
TAP	30	240	0
TAP	30	264	1
TAP	30	288	2
TAP	30	288	3
TAP	30	312	4
TAP	30	336	5
TAP	30	360	6
TAP	31	0	3
STR	31	0	7
SCL	31	0	7	96	48	4
TAP	31	48	3
TAP	31	72	2
TAP	31	96	1
TAP	31	144	7
TAP	31	192	2
STR	31	192	7
SCR	31	192	7	96	48	2
TAP	31	240	2
TAP	31	264	3
TAP	31	288	4
TAP	31	312	5
TAP	31	336	6
TAP	31	360	7
TAP	32	0	0
TAP	32	0	4
TAP	32	48	3
TAP	32	48	7
STR	32	96	1
SI_	32	96	1	96	48	4
STR	32	96	5
SI_	32	96	5	96	48	0
TAP	32	144	2
TAP	32	144	6
TAP	32	192	1
TAP	32	192	5
TAP	32	288	3
TAP	32	288	7
STR	33	0	7
SI_	33	0	7	96	48	3
TAP	33	48	1
TAP	33	72	7
TAP	33	96	0
TAP	33	144	0
STR	33	192	0
SI_	33	192	0	96	48	4
TAP	33	240	6
TAP	33	264	0
TAP	33	288	7
TAP	33	336	7
STR	34	0	5
SI_	34	0	5	96	48	3
TAP	34	48	5
TAP	34	72	5
STR	34	96	1
SI_	34	96	1	96	48	4
TAP	34	144	1
TAP	34	168	1
TAP	34	192	7
TAP	34	240	7
TAP	34	264	6
TAP	34	288	4
TAP	34	288	5
TAP	34	312	3
TAP	34	336	2
TAP	34	360	1
STR	35	0	0
SCR	35	0	0	96	48	3
TAP	35	0	4
TAP	35	48	4
TAP	35	72	5
TAP	35	96	6
TAP	35	144	0
STR	35	192	0
SCL	35	192	0	96	48	5
TAP	35	192	5
TAP	35	240	5
TAP	35	264	4
TAP	35	288	3
TAP	35	312	2
TAP	35	336	1
TAP	35	360	0
TAP	36	0	3
TAP	36	0	7
TAP	36	48	0
TAP	36	48	4
STR	36	96	2
SI_	36	96	2	96	48	7
STR	36	96	6
SI_	36	96	6	96	48	3
TAP	36	144	1
TAP	36	144	5
TAP	36	192	2
TAP	36	192	6
BRK	36	288	0
BRK	36	288	4
STR	37	0	6
SI_	37	0	6	96	48	3
TAP	37	0	7
TAP	37	48	7
TAP	37	72	6
TAP	37	96	0
TAP	37	144	0
TAP	37	192	0
STR	37	192	1
SI_	37	192	1	96	48	4
TAP	37	240	0
TAP	37	264	1
STR	37	288	7
SI_	37	288	7	96	48	5
TAP	37	336	7
STR	38	0	7
SI_	38	0	7	96	48	1
TAP	38	48	3
TAP	38	72	3
STR	38	96	7
SI_	38	96	7	96	48	3
TAP	38	144	3
TAP	38	168	3
TAP	38	192	7
TAP	38	240	0
TAP	38	264	1
TAP	38	288	2
TAP	38	288	3
TAP	38	312	4
TAP	38	336	5
TAP	38	360	6
TAP	39	0	0
STR	39	0	7
SCR	39	0	7	96	48	2
TAP	39	48	6
TAP	39	72	7
TAP	39	96	5
TAP	39	144	5
HLD	39	192	4	192
TAP	39	192	5
TAP	39	240	3
TAP	39	264	2
TAP	39	288	1
TAP	39	312	0
TAP	39	336	7
TAP	39	360	6
TAP	40	0	5
TAP	40	48	0
TAP	40	48	1
STR	40	96	2
SI_	40	96	2	96	48	6
STR	40	96	3
SI_	40	96	3	96	48	7
TAP	40	144	6
TAP	40	144	7
TAP	40	192	2
TAP	40	192	3
TAP	40	288	1
TAP	40	288	5
TAP	41	0	0
STR	41	0	1
SCR	41	0	1	96	48	4
TAP	41	48	0
TAP	41	72	1
TAP	41	96	7
TAP	41	144	7
STR	41	192	6
SCL	41	192	6	96	48	3
TAP	41	192	7
TAP	41	240	7
TAP	41	264	6
STR	41	288	0
SCR	41	288	0	96	48	3
TAP	41	336	0
STR	42	0	0
SCL	42	0	0	96	48	5
TAP	42	48	4
TAP	42	72	4
STR	42	96	0
SI_	42	96	0	96	48	4
TAP	42	144	4
TAP	42	168	4
TAP	42	192	0
TAP	42	240	7
TAP	42	264	6
TAP	42	288	4
TAP	42	288	5
TAP	42	312	3
TAP	42	336	2
TAP	42	360	1
TAP	43	0	0
TAP	43	0	4
TAP	43	48	1
TAP	43	48	5
TAP	43	96	2
TAP	43	96	6
TAP	43	144	3
STR	43	144	7
SCL	43	144	7	96	96	3
TAP	43	192	0
TAP	43	192	4
TAP	43	240	2
TAP	43	264	1
TAP	43	288	0
TAP	43	312	7
TAP	43	336	6
TAP	43	360	5
BRK	44	0	0
BRK	44	0	4
TAP	44	48	2
TAP	44	48	6
BRK	44	96	3
BRK	44	96	7
TAP	44	144	1
TAP	44	144	5
BST	44	192	2
SCL	44	192	2	96	48	6
BST	44	192	6
SCL	44	192	6	96	48	2
TAP	45	0	1
TAP	45	0	5

T_REC_TAP	381
T_REC_BRK	13
T_REC_XTP	0
T_REC_HLD	20
T_REC_XHO	0
T_REC_STR	37
T_REC_BST	2
T_REC_XST	0
T_REC_TTP	0
T_REC_THO	0
T_REC_SLD	39
T_REC_ALL	492
T_NUM_TAP	418
T_NUM_BRK	15
T_NUM_HLD	20
T_NUM_SLD	39
T_NUM_ALL	492
T_JUDGE_TAP	433
T_JUDGE_HLD	43
T_JUDGE_SLD	39
T_JUDGE_ALL	515
TTM_EACHPAIRS	63
TTM_SCR_TAP	209000
TTM_SCR_BRK	39000
TTM_SCR_HLD	20000
TTM_SCR_SLD	58500
TTM_SCR_ALL	326500
TTM_SCR_S	315250
TTM_SCR_SS	325000
TTM_RAT_ACV	10046

