VERSION	0.00.00	1.03.00
FES_MODE	0
BPM_DEF	137.000	137.000	137.000	137.000
MET_DEF	4	4
RESOLUTION	384
CLK_DEF	384
COMPATIBLE_CODE	MA2

BPM	0	0	137.000
MET	0	0	4	4

TAP	3	0	0
TAP	3	48	7
HLD	3	96	6	144
TAP	3	144	1
TAP	3	192	0
HLD	3	240	7	144
TAP	4	0	6
TAP	4	48	7
HLD	4	96	0	144
TAP	4	144	5
TAP	4	192	6
HLD	4	240	7	144
TAP	5	0	2
TAP	5	48	1
HLD	5	96	0	144
TAP	5	144	3
TAP	5	192	2
HLD	5	240	1	144
TAP	6	0	4
TAP	6	48	5
HLD	6	96	6	144
TAP	6	144	3
TAP	6	192	4
HLD	6	240	5	144
TAP	7	0	1
TAP	7	48	2
HLD	7	96	4	144
TAP	7	144	6
TAP	7	192	5
HLD	7	240	3	144
TAP	8	0	6
TAP	8	48	4
HLD	8	96	2	144
TAP	8	144	1
TAP	8	192	3
HLD	8	240	5	144
TAP	9	0	2
TAP	9	48	5
HLD	9	96	6	144
TAP	9	144	5
TAP	9	192	2
HLD	9	240	1	144
TAP	10	0	2
TAP	10	48	1
HLD	10	96	0	144
TAP	10	144	5
TAP	10	192	6
HLD	10	240	7	144
HLD	11	0	0	672
BRK	12	288	5
BRK	12	312	7
BRK	12	336	1
TAP	13	0	0
TAP	13	48	0
TAP	13	72	7
TAP	13	96	0
TAP	13	144	0
TAP	13	192	1
TAP	13	240	1
TAP	13	264	0
TAP	13	288	1
TAP	13	312	0
TAP	13	336	1
TAP	14	0	7
TAP	14	48	7
TAP	14	72	0
TAP	14	96	7
TAP	14	144	7
TAP	14	192	6
TAP	14	240	6
TAP	14	264	7
TAP	14	288	6
TAP	14	312	7
TAP	14	336	0
TAP	14	360	0
TAP	15	0	7
TAP	15	48	7
TAP	15	72	6
TAP	15	96	7
TAP	15	144	7
TAP	15	192	6
TAP	15	240	7
TAP	15	264	6
TAP	15	288	0
TAP	15	312	6
TAP	15	336	7
TAP	16	0	0
TAP	16	48	0
TAP	16	72	1
TAP	16	96	0
TAP	16	144	0
TAP	16	192	1
TAP	16	240	2
TAP	16	264	1
TAP	16	288	3
TAP	16	312	2
TAP	16	336	4
TAP	16	360	3
TAP	17	0	5
TAP	17	48	5
TAP	17	72	4
TAP	17	96	5
TAP	17	144	5
TAP	17	192	3
TAP	17	240	3
TAP	17	264	4
TAP	17	288	3
TAP	17	312	4
TAP	17	336	3
TAP	18	0	2
TAP	18	48	2
TAP	18	72	3
TAP	18	96	2
TAP	18	144	2
TAP	18	192	4
TAP	18	240	4
TAP	18	264	3
TAP	18	288	4
TAP	18	312	3
TAP	18	336	5
TAP	18	360	5
TAP	19	0	4
TAP	19	48	4
TAP	19	72	5
TAP	19	96	4
TAP	19	144	4
TAP	19	192	3
TAP	19	240	4
TAP	19	264	3
TAP	19	288	5
TAP	19	312	3
TAP	19	336	4
TAP	20	0	3
TAP	20	48	3
TAP	20	72	2
TAP	20	96	3
TAP	20	144	3
STR	20	192	4
SI_	20	192	4	96	96	0
TAP	20	240	4
TAP	20	264	4
TAP	21	0	7
TAP	21	48	7
TAP	21	72	1
TAP	21	96	0
TAP	21	144	0
TAP	21	192	1
TAP	21	240	1
TAP	21	264	0
TAP	21	288	7
TAP	21	312	0
TAP	21	336	7
TAP	22	0	0
TAP	22	48	0
TAP	22	72	6
TAP	22	96	7
TAP	22	144	7
TAP	22	192	6
TAP	22	240	6
TAP	22	264	0
TAP	22	288	7
TAP	22	312	7
TAP	22	336	1
TAP	23	0	2
TAP	23	48	2
TAP	23	72	1
TAP	23	96	0
TAP	23	144	0
TAP	23	192	7
TAP	23	240	0
TAP	23	264	7
TAP	23	288	6
TAP	23	312	7
TAP	23	336	0
TAP	24	0	5
TAP	24	48	5
TAP	24	72	6
TAP	24	96	7
TAP	24	144	7
TAP	24	192	0
TAP	24	240	2
TAP	24	240	6
TAP	24	288	0
TAP	24	288	4
TAP	25	0	3
TAP	25	48	3
TAP	25	72	2
TAP	25	96	4
TAP	25	144	4
TAP	25	192	5
TAP	25	240	5
TAP	25	264	4
TAP	25	288	3
TAP	25	312	4
TAP	25	336	3
TAP	26	0	4
TAP	26	48	4
TAP	26	72	5
TAP	26	96	3
TAP	26	144	3
TAP	26	192	2
TAP	26	240	2
TAP	26	264	3
TAP	26	288	4
TAP	26	312	3
TAP	26	336	4
TAP	26	360	5
TAP	27	0	6
TAP	27	48	6
TAP	27	72	7
TAP	27	96	0
TAP	27	144	0
TAP	27	168	1
TAP	27	192	2
TAP	27	240	2
TAP	27	264	3
TAP	27	288	4
TAP	27	336	4
TAP	27	360	5
TAP	28	0	6
TAP	28	24	7
TAP	28	48	0
TAP	28	72	1
TAP	28	96	2
TAP	28	120	3
TAP	28	144	4
TAP	28	168	5
TAP	28	192	6
BRK	28	240	1
BRK	28	240	5
BRK	28	288	3
BRK	28	288	7
TAP	29	0	0
TAP	29	48	7
TAP	29	72	7
TAP	29	96	7
TAP	29	144	6
TAP	29	192	7
TAP	29	240	0
TAP	29	264	0
TAP	29	288	0
TAP	29	336	1
TAP	30	0	0
TAP	30	48	0
TAP	30	72	0
TAP	30	96	7
TAP	30	144	7
TAP	30	168	7
TAP	30	192	6
TAP	30	240	6
TAP	30	264	6
TAP	30	288	5
TAP	30	336	5
TAP	31	0	6
TAP	31	48	7
TAP	31	72	7
TAP	31	96	7
TAP	31	144	0
TAP	31	192	1
TAP	31	240	0
TAP	31	264	0
TAP	31	288	0
TAP	31	336	7
TAP	32	0	6
TAP	32	48	0
TAP	32	96	1
TAP	32	144	7
TAP	32	192	3
TAP	32	288	1
TAP	32	288	5
TAP	33	0	7
TAP	33	48	6
TAP	33	72	6
TAP	33	96	6
TAP	33	144	5
TAP	33	192	0
TAP	33	240	1
TAP	33	264	1
TAP	33	288	1
TAP	33	336	2
TAP	34	0	1
TAP	34	48	2
TAP	34	72	1
TAP	34	96	0
TAP	34	144	1
TAP	34	168	0
TAP	34	192	7
TAP	34	240	0
TAP	34	264	7
TAP	34	288	6
TAP	34	312	7
TAP	34	336	6
TAP	34	360	5
TAP	35	0	6
TAP	35	48	5
TAP	35	72	5
TAP	35	96	5
TAP	35	144	6
TAP	35	192	1
TAP	35	240	2
TAP	35	264	2
TAP	35	288	2
TAP	35	336	1
TAP	36	0	0
TAP	36	48	5
TAP	36	96	6
TAP	36	144	3
TAP	36	192	4
BRK	36	288	2
BRK	36	288	6
TAP	37	0	0
TAP	37	48	6
TAP	37	72	6
TAP	37	96	6
TAP	37	144	4
TAP	37	192	0
TAP	37	240	2
TAP	37	264	2
TAP	37	288	2
TAP	37	336	4
TAP	38	0	0
TAP	38	48	1
TAP	38	72	1
TAP	38	96	7
TAP	38	144	6
TAP	38	168	6
TAP	38	192	0
TAP	38	240	1
TAP	38	264	1
TAP	38	288	0
TAP	38	312	0
TAP	38	336	7
TAP	38	360	7
TAP	39	0	6
TAP	39	48	2
TAP	39	72	2
TAP	39	96	2
TAP	39	144	4
TAP	39	192	1
TAP	39	240	5
TAP	39	264	5
TAP	39	288	5
TAP	39	336	3
TAP	40	0	0
TAP	40	48	4
TAP	40	96	7
TAP	40	144	3
TAP	40	192	4
TAP	40	288	2
TAP	40	288	6
TAP	41	0	7
TAP	41	48	0
TAP	41	72	1
TAP	41	96	2
TAP	41	144	3
TAP	41	192	0
TAP	41	240	7
TAP	41	264	6
TAP	41	288	5
TAP	41	336	4
TAP	42	0	7
TAP	42	48	0
TAP	42	72	1
TAP	42	96	0
TAP	42	144	7
TAP	42	168	6
TAP	42	192	7
TAP	42	240	0
TAP	42	264	1
TAP	42	288	0
TAP	42	312	7
TAP	42	336	6
TAP	42	360	7
TAP	43	0	0
TAP	43	48	1
TAP	43	72	2
TAP	43	96	3
TAP	43	144	4
TAP	43	192	7
TAP	43	240	6
TAP	43	264	5
TAP	43	288	4
TAP	43	312	3
TAP	43	336	2
TAP	43	360	1
BRK	44	0	0
BRK	44	0	4
TAP	44	48	2
TAP	44	48	6
BRK	44	96	3
BRK	44	96	7
TAP	44	144	1
TAP	44	144	5
BRK	44	192	2
BRK	44	192	6
HLD	44	288	0	96
TAP	45	0	4

T_REC_TAP	362
T_REC_BRK	15
T_REC_XTP	0
T_REC_HLD	18
T_REC_XHO	0
T_REC_STR	1
T_REC_BST	0
T_REC_XST	0
T_REC_TTP	0
T_REC_THO	0
T_REC_SLD	1
T_REC_ALL	397
T_NUM_TAP	363
T_NUM_BRK	15
T_NUM_HLD	18
T_NUM_SLD	1
T_NUM_ALL	397
T_JUDGE_TAP	378
T_JUDGE_HLD	64
T_JUDGE_SLD	1
T_JUDGE_ALL	443
TTM_EACHPAIRS	12
TTM_SCR_TAP	181500
TTM_SCR_BRK	39000
TTM_SCR_HLD	18000
TTM_SCR_SLD	1500
TTM_SCR_ALL	240000
TTM_SCR_S	231350
TTM_SCR_SS	238500
TTM_RAT_ACV	10062

