VERSION	0.00.00	1.03.00
FES_MODE	0
BPM_DEF	137.000	137.000	137.000	137.000
MET_DEF	4	4
RESOLUTION	384
CLK_DEF	384
COMPATIBLE_CODE	MA2

BPM	0	0	137.000
MET	0	0	4	4

HLD	3	0	1	672
HLD	4	0	3	672
HLD	5	0	4	672
HLD	6	0	5	672
HLD	7	0	7	672
HLD	8	0	0	672
HLD	9	0	1	672
HLD	10	0	2	288
HLD	11	0	2	672
HLD	11	0	4	672
TAP	13	0	2
TAP	13	48	1
TAP	13	96	0
TAP	13	192	2
TAP	13	240	3
TAP	13	288	4
TAP	14	0	7
TAP	14	48	0
TAP	14	96	1
TAP	14	192	7
TAP	14	240	6
TAP	14	288	5
TAP	15	0	0
TAP	15	48	2
TAP	15	96	4
TAP	15	192	2
TAP	15	240	0
TAP	15	288	6
TAP	16	0	7
TAP	16	48	1
TAP	16	96	3
TAP	16	192	1
TAP	16	240	7
TAP	16	288	5
TAP	17	0	2
TAP	17	48	4
TAP	17	96	6
TAP	17	144	0
TAP	17	192	7
TAP	17	240	5
TAP	17	288	3
TAP	17	336	1
TAP	18	0	2
TAP	18	48	4
TAP	18	96	6
TAP	18	144	0
TAP	18	192	1
TAP	18	240	7
TAP	18	288	5
TAP	18	336	3
TAP	19	0	2
TAP	19	48	4
TAP	19	96	6
TAP	19	144	0
TAP	19	192	6
TAP	19	240	4
TAP	19	288	2
TAP	19	336	0
TAP	20	0	7
TAP	20	48	1
TAP	20	96	3
TAP	20	144	5
TAP	20	192	7
TAP	20	240	6
TAP	20	288	4
TAP	20	336	2
TAP	21	0	1
TAP	21	48	1
HLD	21	72	2	72
TAP	21	192	1
TAP	21	240	1
HLD	21	264	0	72
TAP	22	0	0
TAP	22	48	0
HLD	22	72	1	72
TAP	22	192	3
TAP	22	240	3
HLD	22	264	4	72
TAP	23	0	6
TAP	23	48	6
HLD	23	72	5	72
TAP	23	192	6
TAP	23	240	6
HLD	23	264	7	72
TAP	24	0	7
TAP	24	48	7
HLD	24	72	6	72
TAP	24	192	4
TAP	24	240	4
HLD	24	264	3	72
TAP	25	0	3
TAP	25	48	3
HLD	25	72	2	72
TAP	25	144	3
TAP	25	192	3
TAP	25	240	4
HLD	25	264	5	72
TAP	25	336	4
TAP	26	0	3
TAP	26	48	2
HLD	26	72	1	72
TAP	26	144	0
TAP	26	192	7
TAP	26	240	7
HLD	26	264	6	72
TAP	26	336	7
HLD	27	0	0	384
STR	28	0	2
SI_	28	0	2	96	48	7
STR	28	96	5
SI_	28	96	5	96	48	0
STR	28	192	3
SI_	28	192	3	96	48	7
BRK	28	288	0
TAP	29	0	6
TAP	29	0	7
TAP	29	48	0
TAP	29	96	2
TAP	29	144	4
TAP	29	192	2
TAP	29	192	3
TAP	29	240	1
TAP	29	264	1
TAP	29	336	0
TAP	29	360	0
TAP	30	0	1
TAP	30	48	2
TAP	30	96	3
TAP	30	144	4
TAP	30	192	5
TAP	30	240	6
TAP	30	264	7
TAP	30	312	6
TAP	30	336	5
TAP	31	0	4
TAP	31	48	3
TAP	31	96	2
TAP	31	144	1
TAP	31	192	0
TAP	31	240	7
TAP	31	288	6
TAP	31	288	7
TAP	32	0	0
TAP	32	48	1
TAP	32	96	2
TAP	32	144	3
TAP	32	192	4
TAP	32	240	5
BRK	32	288	6
TAP	33	0	0
TAP	33	0	7
TAP	33	48	6
TAP	33	96	4
TAP	33	144	2
TAP	33	192	3
TAP	33	192	4
TAP	33	240	5
TAP	33	264	5
TAP	33	336	6
TAP	33	360	6
TAP	34	0	7
TAP	34	48	6
TAP	34	96	5
TAP	34	144	4
TAP	34	192	3
TAP	34	240	2
TAP	34	264	1
TAP	34	312	2
TAP	34	336	3
TAP	35	0	4
TAP	35	48	5
TAP	35	96	6
TAP	35	144	7
TAP	35	192	0
TAP	35	240	1
TAP	35	264	1
TAP	35	288	2
TAP	35	336	1
TAP	36	0	7
TAP	36	48	6
TAP	36	96	5
TAP	36	144	4
TAP	36	192	3
TAP	36	240	2
BRK	36	288	0
BRK	36	288	7
HLD	37	0	0	96
TAP	37	0	1
TAP	37	48	3
HLD	37	96	4	96
TAP	37	144	5
TAP	37	192	6
TAP	37	240	7
HLD	37	264	0	72
TAP	37	336	1
HLD	38	0	6	96
TAP	38	0	7
TAP	38	48	4
HLD	38	96	3	96
TAP	38	144	2
TAP	38	192	1
TAP	38	240	0
TAP	38	264	7
TAP	38	312	0
TAP	38	336	1
STR	39	0	1
SI_	39	0	1	96	48	5
TAP	39	48	1
STR	39	192	7
SI_	39	192	7	96	48	3
TAP	39	240	7
TAP	40	0	0
TAP	40	48	7
TAP	40	96	6
TAP	40	144	5
TAP	40	192	4
BRK	40	288	1
BRK	40	288	5
HLD	41	0	1	96
STR	41	0	7
SI_	41	0	7	96	48	2
STR	41	192	0
SI_	41	192	0	96	48	5
HLD	41	192	6	96
HLD	42	0	3	96
STR	42	0	7
SCR	42	0	7	96	48	2
STR	42	192	0
SCL	42	192	0	96	48	5
HLD	42	192	4	96
TAP	43	0	6
TAP	43	48	5
TAP	43	96	4
TAP	43	144	3
TAP	43	192	2
TAP	43	240	1
TAP	43	288	0
TAP	44	0	1
TAP	44	48	3
TAP	44	96	5
TAP	44	144	7
TAP	44	192	6
TAP	44	240	4
STR	44	288	2
SCR	44	288	2	96	192	5
STR	44	288	7
SCR	44	288	7	96	192	2

T_REC_TAP	187
T_REC_BRK	6
T_REC_XTP	0
T_REC_HLD	32
T_REC_XHO	0
T_REC_STR	11
T_REC_BST	0
T_REC_XST	0
T_REC_TTP	0
T_REC_THO	0
T_REC_SLD	11
T_REC_ALL	247
T_NUM_TAP	198
T_NUM_BRK	6
T_NUM_HLD	32
T_NUM_SLD	11
T_NUM_ALL	247
T_JUDGE_TAP	204
T_JUDGE_HLD	182
T_JUDGE_SLD	11
T_JUDGE_ALL	397
TTM_EACHPAIRS	15
TTM_SCR_TAP	99000
TTM_SCR_BRK	15600
TTM_SCR_HLD	32000
TTM_SCR_SLD	16500
TTM_SCR_ALL	163100
TTM_SCR_S	157650
TTM_SCR_SS	162500
TTM_RAT_ACV	10036

