VERSION	0.00.00	1.03.00
FES_MODE	0
BPM_DEF	137.000	137.000	137.000	137.000
MET_DEF	4	4
RESOLUTION	384
CLK_DEF	384
COMPATIBLE_CODE	MA2

BPM	0	0	137.000
MET	0	0	4	4

HLD	3	0	5	288
HLD	4	0	7	288
HLD	5	0	0	288
HLD	6	0	2	288
HLD	7	0	6	288
HLD	8	0	4	288
HLD	9	0	3	288
HLD	10	0	1	288
HLD	11	0	1	576
HLD	11	0	6	576
BRK	12	288	2
BRK	12	288	6
TAP	13	0	0
TAP	13	96	0
TAP	13	192	2
TAP	13	288	2
TAP	14	0	1
TAP	14	96	1
TAP	14	192	3
TAP	14	288	3
TAP	15	0	5
TAP	15	96	5
TAP	15	192	7
TAP	15	288	7
TAP	16	0	6
TAP	16	96	6
TAP	16	192	4
TAP	16	288	4
HLD	17	0	0	96
TAP	17	96	1
HLD	17	192	7	96
TAP	17	288	6
HLD	18	0	0	96
TAP	18	96	1
HLD	18	192	7	96
TAP	18	288	6
HLD	19	0	3	96
TAP	19	96	2
HLD	19	192	4	96
TAP	19	288	5
HLD	20	0	3	96
TAP	20	96	2
HLD	20	192	4	96
TAP	20	288	5
HLD	21	0	1	96
TAP	21	96	2
TAP	21	192	1
TAP	21	192	2
TAP	21	240	1
TAP	21	240	2
TAP	21	288	1
TAP	21	288	2
HLD	22	0	6	96
TAP	22	96	5
TAP	22	192	5
TAP	22	192	6
TAP	22	240	5
TAP	22	240	6
TAP	22	288	5
TAP	22	288	6
HLD	23	0	0	96
TAP	23	96	2
TAP	23	192	0
TAP	23	192	2
TAP	23	240	0
TAP	23	240	2
TAP	23	288	0
TAP	23	288	2
HLD	24	0	7	96
TAP	24	96	5
TAP	24	192	5
TAP	24	192	7
TAP	24	240	5
TAP	24	240	7
TAP	24	288	5
TAP	24	288	7
HLD	25	0	5	96
TAP	25	96	1
TAP	25	192	2
TAP	25	240	2
TAP	25	288	3
TAP	25	336	3
HLD	26	0	4	96
TAP	26	96	5
TAP	26	192	6
TAP	26	240	6
TAP	26	288	7
TAP	26	336	7
STR	27	0	0
SI_	27	0	0	96	96	4
STR	27	192	7
SI_	27	192	7	96	96	3
HLD	28	0	1	96
HLD	28	96	0	96
HLD	28	192	7	96
BRK	28	288	6
TAP	29	0	0
TAP	29	48	1
TAP	29	96	0
TAP	29	192	7
TAP	29	240	6
TAP	29	288	7
TAP	30	0	0
TAP	30	48	1
TAP	30	96	2
TAP	30	144	3
TAP	30	192	4
TAP	30	240	5
TAP	30	288	6
TAP	31	0	4
TAP	31	48	3
TAP	31	96	2
TAP	31	192	4
TAP	31	240	5
TAP	31	288	6
TAP	32	0	5
TAP	32	48	4
TAP	32	96	3
TAP	32	144	2
TAP	32	192	1
TAP	32	240	0
BRK	32	288	7
TAP	33	0	0
TAP	33	48	0
TAP	33	96	1
TAP	33	192	0
TAP	33	240	0
TAP	33	288	7
TAP	34	0	6
TAP	34	48	6
TAP	34	96	5
TAP	34	144	5
TAP	34	192	4
TAP	34	240	4
TAP	34	288	5
TAP	35	0	6
TAP	35	48	6
TAP	35	96	7
TAP	35	192	6
TAP	35	240	5
TAP	35	288	5
TAP	36	0	6
TAP	36	48	6
TAP	36	96	7
TAP	36	144	7
TAP	36	192	0
TAP	36	240	0
TAP	36	288	1
TAP	37	0	0
TAP	37	48	0
TAP	37	96	7
TAP	37	144	7
TAP	37	192	6
TAP	37	240	5
TAP	37	288	4
TAP	38	0	0
TAP	38	48	0
TAP	38	96	1
TAP	38	144	1
TAP	38	192	0
TAP	38	240	7
TAP	38	288	6
TAP	39	0	0
TAP	39	0	7
TAP	39	48	1
TAP	39	96	2
TAP	39	192	0
TAP	39	192	1
TAP	39	240	7
TAP	39	288	6
TAP	40	0	0
TAP	40	48	1
TAP	40	96	2
TAP	40	144	3
TAP	40	192	4
TAP	40	240	5
BRK	40	288	6
HLD	41	0	5	96
HLD	41	96	3	96
TAP	41	192	1
TAP	41	240	1
TAP	41	288	1
HLD	42	0	2	96
HLD	42	96	4	96
TAP	42	192	6
TAP	42	240	6
TAP	42	288	6
TAP	43	0	0
TAP	43	48	0
TAP	43	96	6
TAP	43	144	6
TAP	43	192	2
TAP	43	240	2
TAP	43	288	4
TAP	43	336	4
TAP	44	0	3
TAP	44	48	3
TAP	44	96	5
TAP	44	144	5
TAP	44	192	1
TAP	44	240	1
TAP	44	288	7
TAP	44	336	7
BRK	45	0	0

T_REC_TAP	163
T_REC_BRK	6
T_REC_XTP	0
T_REC_HLD	31
T_REC_XHO	0
T_REC_STR	2
T_REC_BST	0
T_REC_XST	0
T_REC_TTP	0
T_REC_THO	0
T_REC_SLD	2
T_REC_ALL	204
T_NUM_TAP	165
T_NUM_BRK	6
T_NUM_HLD	31
T_NUM_SLD	2
T_NUM_ALL	204
T_JUDGE_TAP	171
T_JUDGE_HLD	114
T_JUDGE_SLD	2
T_JUDGE_ALL	287
TTM_EACHPAIRS	16
TTM_SCR_TAP	82500
TTM_SCR_BRK	15600
TTM_SCR_HLD	31000
TTM_SCR_SLD	3000
TTM_SCR_ALL	132100
TTM_SCR_S	127600
TTM_SCR_SS	131500
TTM_RAT_ACV	10045

