VERSION	0.00.00	1.03.00
FES_MODE	0
BPM_DEF	137.000	137.000	137.000	137.000
MET_DEF	4	4
RESOLUTION	384
CLK_DEF	384
COMPATIBLE_CODE	MA2

BPM	0	0	137.000
MET	0	0	4	4

HLD	3	0	1	192
HLD	4	0	2	192
HLD	5	0	3	192
HLD	6	0	4	192
TAP	7	0	3
TAP	7	192	3
TAP	8	0	2
TAP	8	192	2
HLD	9	0	1	288
HLD	10	0	0	288
BRK	11	0	0
TAP	13	0	0
TAP	13	96	0
TAP	13	192	1
TAP	14	0	0
TAP	14	96	0
TAP	14	192	7
TAP	15	0	6
TAP	15	96	6
TAP	15	192	5
TAP	16	0	4
TAP	16	96	4
TAP	16	192	3
TAP	17	0	4
TAP	17	96	5
TAP	17	192	6
TAP	18	0	4
TAP	18	96	3
TAP	18	192	2
TAP	19	0	3
TAP	19	96	4
TAP	19	192	5
TAP	20	0	3
TAP	20	96	2
TAP	20	192	1
TAP	21	0	0
TAP	21	96	1
TAP	21	192	2
TAP	21	288	3
TAP	22	0	4
TAP	22	96	5
TAP	22	192	6
TAP	22	288	7
TAP	23	0	7
TAP	23	96	6
TAP	23	192	5
TAP	23	288	4
TAP	24	0	3
TAP	24	96	2
TAP	24	192	1
TAP	24	288	0
TAP	25	0	7
TAP	25	96	6
TAP	25	96	7
TAP	25	192	0
TAP	25	288	1
TAP	26	0	2
TAP	26	96	2
TAP	26	96	3
TAP	26	192	1
TAP	26	288	0
HLD	27	0	7	480
TAP	28	192	7
BRK	28	288	0
BRK	28	288	7
TAP	29	0	7
TAP	29	96	6
TAP	29	192	7
TAP	29	288	0
TAP	29	288	7
TAP	30	0	1
TAP	30	96	2
TAP	30	192	1
TAP	30	288	0
TAP	30	288	7
TAP	31	0	6
TAP	31	96	5
TAP	31	192	4
TAP	31	288	3
TAP	32	0	4
TAP	32	96	5
TAP	32	192	6
BRK	32	288	7
TAP	33	0	6
TAP	33	96	6
TAP	33	192	4
TAP	33	288	4
TAP	34	0	2
TAP	34	96	2
TAP	34	192	0
TAP	34	288	0
TAP	35	0	1
TAP	35	96	3
TAP	35	192	5
TAP	35	288	0
TAP	36	0	6
TAP	36	96	4
TAP	36	192	2
TAP	36	288	0
TAP	36	288	7
STR	37	0	1
SI_	37	0	1	96	96	4
STR	38	0	5
SI_	38	0	5	96	96	0
STR	39	0	7
SI_	39	0	7	96	96	4
TAP	40	0	0
TAP	40	96	2
TAP	40	192	4
TAP	40	288	5
TAP	41	0	4
TAP	41	96	3
TAP	41	192	2
TAP	41	288	0
TAP	41	288	1
TAP	42	0	2
TAP	42	96	3
TAP	42	192	4
TAP	42	288	5
TAP	42	288	6
TAP	43	0	4
TAP	43	96	2
TAP	43	192	0
TAP	43	288	6
TAP	44	0	7
TAP	44	96	7
TAP	44	192	0
TAP	44	288	0
BRK	45	0	0
BRK	45	0	7

T_REC_TAP	111
T_REC_BRK	6
T_REC_XTP	0
T_REC_HLD	7
T_REC_XHO	0
T_REC_STR	3
T_REC_BST	0
T_REC_XST	0
T_REC_TTP	0
T_REC_THO	0
T_REC_SLD	3
T_REC_ALL	130
T_NUM_TAP	114
T_NUM_BRK	6
T_NUM_HLD	7
T_NUM_SLD	3
T_NUM_ALL	130
T_JUDGE_TAP	120
T_JUDGE_HLD	38
T_JUDGE_SLD	3
T_JUDGE_ALL	161
TTM_EACHPAIRS	9
TTM_SCR_TAP	57000
TTM_SCR_BRK	15600
TTM_SCR_HLD	7000
TTM_SCR_SLD	4500
TTM_SCR_ALL	84100
TTM_SCR_S	81000
TTM_SCR_SS	83500
TTM_RAT_ACV	10071

