VERSION	0.00.00	1.03.00
FES_MODE	0
BPM_DEF	180.000	180.000	180.000	180.000
MET_DEF	4	4
RESOLUTION	384
CLK_DEF	384
COMPATIBLE_CODE	MA2

BPM	0	0	180.000
MET	0	0	4	4

STR	1	0	5
SXL	1	0	5	96	96	0
TAP	1	48	4
TAP	1	96	3
STR	1	192	4
SCL	1	192	4	96	48	1
TAP	1	240	5
STR	1	336	4
SCR	1	336	4	96	48	7
TAP	2	0	3
STR	2	96	4
SUL	2	96	4	96	48	0
TAP	2	144	5
STR	2	240	4
SUR	2	240	4	96	48	0
TAP	2	288	3
STR	3	0	2
SXR	3	0	2	96	96	7
TAP	3	48	3
TAP	3	96	4
STR	3	192	3
SCR	3	192	3	96	48	6
TAP	3	240	2
STR	3	336	3
SCL	3	336	3	96	48	0
TAP	4	0	5
TAP	4	48	4
STR	4	96	3
SUR	4	96	3	96	48	7
TAP	4	144	1
TAP	4	192	2
STR	4	240	3
SUL	4	240	3	96	48	7
STR	5	0	5
SXL	5	0	5	96	96	0
TAP	5	48	4
TAP	5	96	3
STR	5	192	4
SCL	5	192	4	96	48	1
TAP	5	240	5
STR	5	336	4
SCR	5	336	4	96	48	7
TAP	6	0	3
STR	6	96	4
SUL	6	96	4	96	48	0
TAP	6	144	5
STR	6	240	4
SUR	6	240	4	96	48	0
TAP	6	288	3
STR	7	0	2
SXR	7	0	2	96	96	7
TAP	7	48	3
TAP	7	96	4
STR	7	192	3
SCR	7	192	3	96	48	6
TAP	7	240	1
STR	7	336	3
SCL	7	336	3	96	48	0
TAP	8	0	5
STR	8	48	4
SI_	8	48	4	96	48	6
STR	8	96	4
SI_	8	96	4	96	48	2
STR	8	144	4
SI_	8	144	4	96	48	7
STR	8	192	4
SI_	8	192	4	96	48	1
STR	8	240	4
SI_	8	240	4	96	48	0
TAP	8	288	4
TAP	8	336	4
STR	9	0	1
SI_	9	0	1	96	48	3
STR	9	48	0
SI_	9	48	0	96	48	4
STR	9	96	1
SCL	9	96	1	96	96	4
TAP	9	144	0
TAP	9	192	1
STR	10	0	6
SI_	10	0	6	96	48	4
STR	10	48	7
SI_	10	48	7	96	48	3
STR	10	96	6
SCR	10	96	6	96	96	3
TAP	10	144	7
TAP	10	192	6
STR	11	0	1
SI_	11	0	1	96	48	3
STR	11	48	0
SI_	11	48	0	96	48	4
STR	11	96	1
SCL	11	96	1	96	96	4
TAP	11	144	0
TAP	11	192	1
STR	11	288	6
SI_	11	288	6	96	48	3
STR	11	336	7
SI_	11	336	7	96	48	1
STR	12	0	6
SI_	12	0	6	96	48	2
STR	12	48	7
SI_	12	48	7	96	48	3
STR	12	96	6
SI_	12	96	6	96	48	4
STR	12	144	7
SCR	12	144	7	96	96	3
TAP	12	192	6
TAP	12	240	7
STR	13	0	7
SI_	13	0	7	96	48	3
STR	13	48	1
SI_	13	48	1	96	48	3
STR	13	96	7
SCL	13	96	7	96	72	3
TAP	13	144	1
TAP	13	192	7
STR	14	0	0
SI_	14	0	0	96	48	4
STR	14	48	6
SI_	14	48	6	96	48	4
STR	14	96	0
SCR	14	96	0	96	72	4
TAP	14	144	6
TAP	14	192	0
STR	15	0	7
SI_	15	0	7	96	48	3
STR	15	48	1
SI_	15	48	1	96	48	3
STR	15	96	7
SCL	15	96	7	96	72	3
TAP	15	144	1
TAP	15	192	7
STR	15	288	1
SI_	15	288	1	96	48	4
STR	15	336	0
SI_	15	336	0	96	48	6
STR	16	0	1
SI_	16	0	1	96	48	5
STR	16	48	0
SI_	16	48	0	96	48	4
STR	16	96	1
SI_	16	96	1	96	48	3
STR	16	144	0
SI_	16	144	0	96	48	5
STR	16	192	1
SI_	16	192	1	96	48	4
STR	16	240	0
SI_	16	240	0	96	48	6
TAP	16	288	1
TAP	16	336	0
BST	17	0	1
SCL	17	0	1	96	48	6
TAP	17	96	1
STR	17	144	3
SUL	17	144	3	96	96	7
STR	17	240	7
SUL	17	240	7	96	96	3
STR	17	336	3
SI_	17	336	3	96	48	1
SI_	17	336	3	96	48	6
STR	18	144	0
SI_	18	144	0	96	48	3
STR	18	192	5
SI_	18	192	5	96	48	1
STR	18	240	0
SI_	18	240	0	96	48	4
TAP	18	288	5
TAP	18	336	0
STR	19	0	6
SCR	19	0	6	96	48	1
TAP	19	96	6
STR	19	144	4
SUR	19	144	4	96	96	0
STR	19	240	0
SUR	19	240	0	96	96	4
STR	19	336	4
SI_	19	336	4	96	48	1
SI_	19	336	4	96	48	6
STR	20	144	7
SI_	20	144	7	96	48	4
STR	20	192	2
SI_	20	192	2	96	48	6
STR	20	240	7
SI_	20	240	7	96	48	3
TAP	20	288	2
TAP	20	336	7
STR	21	0	2
SCR	21	0	2	96	48	5
TAP	21	96	2
STR	21	144	0
SUR	21	144	0	96	96	4
STR	21	240	4
SUR	21	240	4	96	96	0
STR	21	336	0
SI_	21	336	0	96	48	2
SI_	21	336	0	96	48	5
STR	22	144	1
SI_	22	144	1	96	48	5
STR	22	192	6
SI_	22	192	6	96	48	2
STR	22	240	1
SI_	22	240	1	96	48	4
TAP	22	288	6
TAP	22	336	1
STR	23	0	5
SCL	23	0	5	96	48	2
TAP	23	96	5
STR	23	144	7
SUL	23	144	7	96	96	3
STR	23	240	3
SUL	23	240	3	96	96	7
STR	23	336	7
SI_	23	336	7	96	48	2
SI_	23	336	7	96	48	5
STR	24	144	6
SI_	24	144	6	96	48	2
STR	24	192	1
SI_	24	192	1	96	48	5
STR	24	240	6
SI_	24	240	6	96	48	3
TAP	24	288	1
TAP	24	336	6
STR	25	0	1
SCL	25	0	1	96	48	6
TAP	25	96	1
STR	25	144	3
SUL	25	144	3	96	96	7
STR	25	240	7
SUL	25	240	7	96	96	3
STR	25	336	3
SI_	25	336	3	96	48	6
STR	26	48	0
SI_	26	48	0	96	48	2
STR	26	144	0
SI_	26	144	0	96	48	6
STR	26	144	5
SI_	26	144	5	96	48	1
TAP	26	240	0
TAP	26	240	5
TAP	26	336	7
STR	27	0	6
SCR	27	0	6	96	48	1
TAP	27	96	6
STR	27	144	4
SUR	27	144	4	96	96	0
STR	27	240	0
SUR	27	240	0	96	96	4
STR	27	336	4
SI_	27	336	4	96	48	1
STR	28	48	7
SI_	28	48	7	96	48	5
STR	28	144	2
SI_	28	144	2	96	48	6
STR	28	144	7
SI_	28	144	7	96	48	1
TAP	28	240	2
TAP	28	240	7
STR	29	0	5
SCL	29	0	5	96	48	2
TAP	29	96	5
STR	29	144	7
SUL	29	144	7	96	96	3
STR	29	240	3
SUL	29	240	3	96	96	7
STR	29	336	7
SI_	29	336	7	96	48	2
STR	30	48	4
SI_	30	48	4	96	48	6
STR	30	144	1
SI_	30	144	1	96	48	5
STR	30	144	4
SI_	30	144	4	96	48	2
TAP	30	240	1
TAP	30	240	4
TAP	30	336	1
STR	31	0	2
SCR	31	0	2	96	48	5
TAP	31	96	2
STR	31	144	0
SUR	31	144	0	96	96	4
STR	31	240	4
SUR	31	240	4	96	96	0
STR	31	336	0
SI_	31	336	0	96	48	5
STR	32	48	3
SI_	32	48	3	96	48	1
STR	32	144	3
SI_	32	144	3	96	48	5
STR	32	144	6
SI_	32	144	6	96	48	2
TAP	32	240	3
TAP	32	240	6
STR	33	0	0
SI_	33	0	0	96	48	6
STR	33	96	0
SI_	33	96	0	96	48	4
SI_	33	96	0	96	48	5
TAP	33	96	2
STR	33	192	0
SI_	33	192	0	96	48	2
STR	33	288	0
SI_	33	288	0	96	48	3
SI_	33	288	0	96	48	4
TAP	33	288	6
STR	34	0	0
SI_	34	0	0	96	48	6
STR	34	96	0
SCL	34	96	0	96	48	4
SCR	34	96	0	96	48	4
TAP	34	96	2
TAP	34	192	0
TAP	34	288	2
TAP	34	288	6
STR	35	0	7
SI_	35	0	7	96	48	1
TAP	35	96	5
STR	35	96	7
SI_	35	96	7	96	48	2
SI_	35	96	7	96	48	3
STR	35	192	7
SI_	35	192	7	96	48	5
TAP	35	288	1
STR	35	288	7
SI_	35	288	7	96	48	3
SI_	35	288	7	96	48	4
STR	36	0	7
SI_	36	0	7	96	48	1
TAP	36	96	5
STR	36	96	7
SCL	36	96	7	96	48	3
SCR	36	96	7	96	48	3
TAP	36	192	7
TAP	36	288	1
TAP	36	288	5
STR	37	0	0
SI_	37	0	0	96	48	2
SI_	37	0	0	96	48	3
STR	37	96	0
SI_	37	96	0	96	48	4
STR	37	192	0
SI_	37	192	0	96	48	5
SI_	37	192	0	96	48	6
TAP	37	192	1
STR	37	288	0
SI_	37	288	0	96	48	4
STR	38	0	0
SI_	38	0	0	96	48	2
SI_	38	0	0	96	48	3
TAP	38	0	7
STR	38	96	0
SF_	38	96	0	96	48	4
TAP	38	192	0
TAP	38	288	2
TAP	38	288	6
STR	39	0	7
SI_	39	0	7	96	48	4
SI_	39	0	7	96	48	5
STR	39	96	7
SI_	39	96	7	96	48	3
TAP	39	192	6
STR	39	192	7
SI_	39	192	7	96	48	1
SI_	39	192	7	96	48	2
STR	39	288	7
SI_	39	288	7	96	48	3
TAP	40	0	0
STR	40	0	7
SI_	40	0	7	96	48	4
SI_	40	0	7	96	48	5
STR	40	96	7
SF_	40	96	7	96	48	3
TAP	40	192	7
TAP	40	288	0
TAP	40	288	4
TAP	40	312	1
TAP	40	312	5
TAP	40	336	2
TAP	40	336	6
TAP	40	360	3
TAP	40	360	7
STR	41	0	0
SI_	41	0	0	96	48	2
TAP	41	0	4
TAP	41	48	2
STR	41	96	0
SI_	41	96	0	96	48	5
TAP	41	96	4
TAP	41	144	6
STR	41	192	0
SI_	41	192	0	96	48	3
TAP	41	192	4
TAP	41	240	2
STR	41	288	0
SI_	41	288	0	96	48	6
TAP	41	288	4
TAP	41	336	6
STR	42	0	0
SI_	42	0	0	96	48	2
TAP	42	0	4
TAP	42	48	2
STR	42	96	0
SI_	42	96	0	96	48	4
TAP	42	96	4
TAP	42	144	6
TAP	42	192	0
TAP	42	192	4
TAP	42	288	4
TAP	42	312	5
TAP	42	336	6
TAP	42	360	7
STR	43	0	0
SI_	43	0	0	96	48	2
TAP	43	0	4
TAP	43	48	2
STR	43	96	0
SI_	43	96	0	96	48	5
TAP	43	96	4
TAP	43	144	6
STR	43	192	0
SI_	43	192	0	96	48	3
TAP	43	192	4
TAP	43	240	2
STR	43	288	0
SI_	43	288	0	96	48	6
TAP	43	288	4
TAP	43	336	6
STR	44	0	0
SI_	44	0	0	96	48	4
TAP	44	0	4
TAP	44	48	2
TAP	44	96	0
TAP	44	96	4
TAP	44	144	6
STR	44	192	2
SCL	44	192	2	96	48	7
STR	44	192	6
SCL	44	192	6	96	48	3
TAP	45	0	3
STR	45	0	7
SI_	45	0	7	96	48	5
TAP	45	48	5
TAP	45	96	3
STR	45	96	7
SI_	45	96	7	96	48	2
TAP	45	144	1
TAP	45	192	3
STR	45	192	7
SI_	45	192	7	96	48	4
TAP	45	240	5
TAP	45	288	3
STR	45	288	7
SI_	45	288	7	96	48	1
TAP	45	336	1
TAP	46	0	3
STR	46	0	7
SI_	46	0	7	96	48	5
TAP	46	48	5
TAP	46	96	3
STR	46	96	7
SI_	46	96	7	96	48	3
TAP	46	144	1
TAP	46	192	3
TAP	46	192	7
TAP	46	288	3
TAP	46	312	2
TAP	46	336	1
TAP	46	360	0
TAP	47	0	3
STR	47	0	7
SI_	47	0	7	96	48	5
TAP	47	48	5
TAP	47	96	3
STR	47	96	7
SI_	47	96	7	96	48	2
TAP	47	144	1
TAP	47	192	3
STR	47	192	7
SI_	47	192	7	96	48	4
TAP	47	240	5
TAP	47	288	3
STR	47	288	7
SI_	47	288	7	96	48	1
TAP	47	336	1
TAP	48	0	3
STR	48	0	7
SI_	48	0	7	96	48	5
TAP	48	48	5
TAP	48	96	3
STR	48	96	7
SI_	48	96	7	96	48	3
TAP	48	144	1
TAP	48	192	3
TAP	48	192	7
TAP	48	288	2
TAP	48	288	6
TAP	48	312	7
TAP	48	336	0
TAP	48	360	1
HLD	49	0	2	0
HLD	49	0	6	0
HLD	49	24	3	0
HLD	49	24	7	0
HLD	49	48	0	0
HLD	49	48	4	0
HLD	49	72	1	0
HLD	49	72	5	0
HLD	49	96	2	0
STR	49	96	6
SI_	49	96	6	96	48	2
HLD	49	120	3	0
HLD	49	120	7	0
HLD	49	144	0	0
HLD	49	144	4	0
HLD	49	168	1	0
HLD	49	168	5	0
HLD	49	192	2	0
HLD	49	192	6	0
BRK	49	288	7
TAP	50	0	1
STR	50	0	7
SI_	50	0	7	96	48	2
TAP	50	48	0
TAP	50	96	5
TAP	50	96	7
TAP	50	144	6
TAP	50	192	3
STR	50	192	7
SUR	50	192	7	96	48	3
TAP	50	216	2
TAP	50	216	6
TAP	50	240	1
TAP	50	240	5
TAP	50	264	0
TAP	50	264	4
TAP	50	288	3
TAP	50	288	7
STR	51	0	0
SI_	51	0	0	96	48	5
TAP	51	0	6
TAP	51	48	7
TAP	51	96	0
TAP	51	96	2
TAP	51	144	1
STR	51	192	0
SUL	51	192	0	96	48	4
TAP	51	192	4
TAP	51	216	1
TAP	51	216	5
TAP	51	240	2
TAP	51	240	6
TAP	51	264	3
TAP	51	264	7
TAP	51	288	0
TAP	51	288	4
TAP	52	0	1
STR	52	0	7
SI_	52	0	7	96	48	2
TAP	52	48	0
TAP	52	96	5
TAP	52	96	7
TAP	52	144	6
TAP	52	192	3
STR	52	192	7
SUR	52	192	7	96	48	3
TAP	52	216	2
TAP	52	216	6
TAP	52	240	1
TAP	52	240	5
TAP	52	264	0
TAP	52	264	4
TAP	52	288	3
TAP	52	288	7
TAP	53	0	6
TAP	53	24	7
TAP	53	48	4
TAP	53	72	0
TAP	53	96	5
TAP	53	120	1
TAP	53	144	6
TAP	53	168	2
STR	53	192	3
SUR	53	192	3	96	48	7
STR	53	192	7
SUR	53	192	7	96	48	3
TAP	53	216	2
TAP	53	216	6
TAP	53	240	1
TAP	53	240	5
TAP	53	264	0
TAP	53	264	4
TAP	53	288	3
TAP	53	288	7
TAP	54	0	1
TAP	54	24	0
TAP	54	48	3
TAP	54	72	7
TAP	54	96	2
TAP	54	120	6
TAP	54	144	1
TAP	54	168	5
STR	54	192	0
SUL	54	192	0	96	48	4
STR	54	192	4
SUL	54	192	4	96	48	0
TAP	54	216	1
TAP	54	216	5
TAP	54	240	2
TAP	54	240	6
TAP	54	264	3
TAP	54	264	7
TAP	54	288	0
TAP	54	288	4
TAP	55	0	2
TAP	55	24	5
TAP	55	48	3
TAP	55	72	4
TAP	55	96	1
TAP	55	120	6
TAP	55	144	3
TAP	55	168	7
TAP	55	192	2
TAP	55	216	6
TAP	55	240	1
TAP	55	264	5
TAP	55	288	0
TAP	55	312	4
TAP	55	336	7
TAP	55	360	3
TAP	56	0	2
STR	56	0	6
SCR	56	0	6	96	168	5
TAP	56	24	3
STR	56	24	7
SCR	56	24	7	96	168	6
STR	56	48	0
SCR	56	48	0	96	168	7
TAP	56	48	4
STR	56	72	1
SCR	56	72	1	96	168	0
TAP	56	72	5
STR	56	96	2
SCR	56	96	2	96	168	1
TAP	56	96	6
TAP	56	192	6
TAP	56	216	7
TAP	56	240	0
TAP	56	264	1
TAP	56	288	2
TAP	56	312	3
TAP	56	336	4
TAP	56	360	5
HLD	57	0	2	1440
HLD	57	0	6	672
BRK	60	288	6

T_REC_TAP	266
T_REC_BRK	2
T_REC_XTP	0
T_REC_HLD	19
T_REC_XHO	0
T_REC_STR	175
T_REC_BST	1
T_REC_XST	0
T_REC_TTP	0
T_REC_THO	0
T_REC_SLD	192
T_REC_ALL	655
T_NUM_TAP	441
T_NUM_BRK	3
T_NUM_HLD	19
T_NUM_SLD	192
T_NUM_ALL	655
T_JUDGE_TAP	444
T_JUDGE_HLD	61
T_JUDGE_SLD	192
T_JUDGE_ALL	697
TTM_EACHPAIRS	100
TTM_SCR_TAP	220500
TTM_SCR_BRK	7800
TTM_SCR_HLD	19000
TTM_SCR_SLD	288000
TTM_SCR_ALL	535300
TTM_SCR_S	518950
TTM_SCR_SS	535000
TTM_RAT_ACV	10005

