VERSION	0.00.00	1.03.00
FES_MODE	0
BPM_DEF	180.000	180.000	180.000	180.000
MET_DEF	4	4
RESOLUTION	384
CLK_DEF	384
COMPATIBLE_CODE	MA2

BPM	0	0	180.000
MET	0	0	4	4

TAP	1	0	2
TAP	1	48	1
TAP	1	96	0
TAP	1	192	2
TAP	1	240	3
TAP	1	336	5
TAP	2	0	4
TAP	2	96	6
TAP	2	144	7
TAP	2	240	1
TAP	2	287	2
TAP	2	336	3
TAP	3	0	5
TAP	3	48	6
TAP	3	96	7
TAP	3	192	5
TAP	3	240	4
TAP	3	336	2
TAP	4	0	3
TAP	4	48	6
TAP	4	96	1
TAP	4	96	7
TAP	4	144	0
TAP	4	192	6
TAP	4	240	1
TAP	4	240	7
TAP	4	288	2
TAP	4	336	3
TAP	5	0	2
TAP	5	48	1
TAP	5	96	0
TAP	5	192	2
TAP	5	240	3
TAP	5	336	5
TAP	6	0	4
TAP	6	96	6
TAP	6	144	7
TAP	6	240	1
TAP	6	287	2
TAP	6	336	3
TAP	7	0	5
TAP	7	48	6
TAP	7	96	7
TAP	7	192	0
TAP	7	192	5
TAP	7	240	4
TAP	7	336	2
TAP	7	336	7
TAP	8	0	3
TAP	8	48	6
TAP	8	96	1
TAP	8	96	7
TAP	8	144	0
TAP	8	144	7
TAP	8	192	6
TAP	8	240	1
TAP	8	240	7
TAP	8	288	2
TAP	8	288	6
TAP	8	336	3
TAP	8	336	7
TAP	9	0	0
TAP	9	0	7
TAP	9	48	6
TAP	9	96	1
TAP	9	144	7
TAP	9	168	0
TAP	9	216	0
TAP	9	240	7
TAP	9	288	1
TAP	9	336	7
TAP	10	0	2
TAP	10	48	6
TAP	10	96	3
TAP	10	144	5
TAP	10	168	2
TAP	10	216	2
TAP	10	240	5
TAP	10	288	3
TAP	10	336	5
TAP	11	0	2
TAP	11	48	3
TAP	11	96	2
TAP	11	144	5
TAP	11	168	2
TAP	11	216	2
TAP	11	240	6
TAP	11	288	1
TAP	11	336	7
TAP	12	0	0
TAP	12	48	5
TAP	12	96	2
TAP	12	144	5
TAP	12	168	1
TAP	12	216	1
TAP	12	240	5
TAP	12	288	3
TAP	12	336	5
TAP	13	0	2
TAP	13	48	5
TAP	13	96	1
TAP	13	144	7
TAP	13	168	0
TAP	13	192	7
TAP	13	216	0
TAP	13	240	7
TAP	13	288	2
TAP	13	336	0
TAP	14	0	3
TAP	14	48	5
TAP	14	96	2
TAP	14	144	4
TAP	14	168	1
TAP	14	216	1
TAP	14	240	5
TAP	14	288	0
TAP	14	336	6
TAP	15	0	1
TAP	15	48	5
TAP	15	96	7
TAP	15	144	5
TAP	15	168	0
TAP	15	192	5
TAP	15	216	0
TAP	15	240	5
TAP	15	288	4
TAP	15	336	2
TAP	16	0	3
TAP	16	48	2
TAP	16	96	5
TAP	16	144	1
TAP	16	168	4
TAP	16	216	4
TAP	16	240	0
TAP	16	288	6
TAP	16	312	7
TAP	16	336	0
TAP	16	360	1
TAP	17	0	2
BRK	17	0	7
TAP	17	48	6
TAP	17	96	1
TAP	17	144	5
TAP	17	168	0
TAP	17	216	0
TAP	17	240	4
TAP	17	288	7
TAP	17	336	3
TAP	18	0	0
TAP	18	48	5
TAP	18	96	1
TAP	18	144	4
TAP	18	168	0
TAP	18	192	5
TAP	18	216	0
TAP	18	240	4
TAP	18	288	0
TAP	18	312	4
TAP	18	336	0
TAP	18	360	6
TAP	19	0	0
TAP	19	0	7
TAP	19	48	5
TAP	19	96	2
TAP	19	144	5
TAP	19	168	1
TAP	19	216	1
TAP	19	240	6
TAP	19	288	7
TAP	19	336	5
TAP	20	0	0
TAP	20	48	4
TAP	20	96	1
TAP	20	144	4
TAP	20	168	2
TAP	20	192	3
TAP	20	216	2
TAP	20	240	4
TAP	20	288	3
TAP	20	312	4
TAP	20	336	5
TAP	20	360	6
TAP	21	0	5
TAP	21	0	7
TAP	21	48	1
TAP	21	96	7
TAP	21	144	1
TAP	21	168	6
TAP	21	216	6
TAP	21	240	2
TAP	21	288	5
TAP	21	336	3
TAP	22	0	5
TAP	22	48	1
TAP	22	96	6
TAP	22	144	0
TAP	22	168	7
TAP	22	192	1
TAP	22	216	6
TAP	22	240	2
TAP	22	288	4
TAP	22	312	3
TAP	22	336	5
TAP	22	360	3
TAP	23	0	2
TAP	23	0	4
TAP	23	48	6
TAP	23	96	1
TAP	23	144	5
TAP	23	168	7
TAP	23	216	7
TAP	23	240	4
TAP	23	288	1
TAP	23	336	7
TAP	24	0	2
TAP	24	48	5
TAP	24	96	3
TAP	24	144	4
TAP	24	168	3
TAP	24	192	5
TAP	24	216	2
TAP	24	240	6
TAP	24	288	1
TAP	24	312	2
TAP	24	336	3
TAP	24	360	4
TAP	25	0	5
TAP	25	0	6
TAP	25	48	4
TAP	25	96	6
TAP	25	144	5
TAP	25	168	4
TAP	25	192	5
TAP	25	216	4
TAP	25	240	5
TAP	25	288	4
TAP	25	336	2
TAP	26	0	0
TAP	26	48	2
TAP	26	96	4
TAP	26	144	3
TAP	26	168	5
TAP	26	192	3
TAP	26	216	5
TAP	26	240	3
TAP	26	288	2
TAP	26	312	4
TAP	26	336	2
TAP	26	360	4
TAP	27	0	2
TAP	27	0	5
TAP	27	48	6
TAP	27	96	0
TAP	27	144	5
TAP	27	168	4
TAP	27	192	5
TAP	27	216	4
TAP	27	240	5
TAP	27	288	4
TAP	27	336	6
TAP	28	0	3
TAP	28	48	0
TAP	28	96	2
TAP	28	144	3
TAP	28	168	4
TAP	28	192	3
TAP	28	216	4
TAP	28	240	3
TAP	28	288	6
TAP	28	312	7
TAP	28	336	0
TAP	28	360	1
TAP	29	0	0
TAP	29	0	2
TAP	29	48	4
TAP	29	96	6
TAP	29	144	5
TAP	29	168	4
TAP	29	192	5
TAP	29	216	4
TAP	29	240	3
TAP	29	288	4
TAP	29	336	2
TAP	30	0	0
TAP	30	48	2
TAP	30	96	4
TAP	30	144	5
TAP	30	168	4
TAP	30	192	5
TAP	30	216	4
TAP	30	240	3
TAP	30	288	2
TAP	30	312	4
TAP	30	336	2
TAP	30	360	4
TAP	31	0	2
TAP	31	0	5
TAP	31	48	6
TAP	31	96	0
TAP	31	144	5
TAP	31	168	4
TAP	31	192	5
TAP	31	216	4
TAP	31	240	3
TAP	31	288	4
TAP	31	336	6
TAP	32	0	3
TAP	32	48	0
TAP	32	96	2
TAP	32	144	3
TAP	32	168	4
TAP	32	192	3
TAP	32	216	4
TAP	32	240	5
TAP	32	288	5
TAP	32	312	6
TAP	32	336	7
TAP	32	360	0
TAP	33	0	1
TAP	33	24	0
TAP	33	48	1
TAP	33	72	0
TAP	33	96	1
TAP	33	144	6
TAP	33	168	7
TAP	33	192	6
TAP	33	216	7
TAP	33	240	6
TAP	33	288	0
TAP	33	312	7
TAP	33	336	0
TAP	34	0	5
TAP	34	24	4
TAP	34	48	5
TAP	34	72	4
TAP	34	96	5
TAP	34	144	2
TAP	34	168	3
TAP	34	192	2
TAP	34	216	3
TAP	34	240	2
TAP	34	288	4
TAP	34	312	3
TAP	34	336	4
TAP	35	0	3
TAP	35	24	4
TAP	35	48	3
TAP	35	72	4
TAP	35	96	3
TAP	35	144	4
TAP	35	168	3
TAP	35	192	4
TAP	35	216	3
TAP	35	240	4
TAP	35	288	2
TAP	35	312	5
TAP	35	336	2
TAP	36	0	6
TAP	36	24	1
TAP	36	48	6
TAP	36	72	1
TAP	36	96	6
TAP	36	144	1
TAP	36	168	6
TAP	36	192	1
TAP	36	216	6
TAP	36	240	1
TAP	36	288	7
TAP	36	312	0
TAP	36	336	7
TAP	37	0	1
TAP	37	24	0
TAP	37	48	1
TAP	37	72	0
TAP	37	96	1
TAP	37	144	6
TAP	37	168	7
TAP	37	192	6
TAP	37	216	7
TAP	37	240	6
TAP	37	288	0
TAP	37	312	7
TAP	37	336	0
TAP	37	360	7
TAP	38	0	2
TAP	38	24	3
TAP	38	48	2
TAP	38	72	3
TAP	38	96	2
TAP	38	144	5
TAP	38	168	4
TAP	38	192	5
TAP	38	216	4
TAP	38	240	5
TAP	38	288	3
TAP	38	312	4
TAP	38	336	3
TAP	38	360	4
TAP	39	0	2
TAP	39	24	5
TAP	39	48	2
TAP	39	72	5
TAP	39	96	2
TAP	39	144	6
TAP	39	168	1
TAP	39	192	6
TAP	39	216	1
TAP	39	240	6
TAP	39	288	0
TAP	39	312	7
TAP	39	336	0
TAP	39	360	7
TAP	40	0	2
TAP	40	24	3
TAP	40	48	2
TAP	40	72	1
TAP	40	96	2
TAP	40	144	4
TAP	40	168	3
TAP	40	192	4
TAP	40	216	5
TAP	40	240	4
TAP	40	288	5
TAP	40	312	6
TAP	40	336	7
TAP	40	360	0
TAP	41	0	1
TAP	41	0	7
TAP	41	24	6
TAP	41	48	2
TAP	41	96	5
TAP	41	144	3
TAP	41	168	4
TAP	41	192	2
TAP	41	240	7
TAP	41	288	1
TAP	41	312	6
TAP	41	336	2
TAP	41	360	7
TAP	42	0	1
TAP	42	24	6
TAP	42	48	1
TAP	42	96	7
TAP	42	144	0
TAP	42	168	6
TAP	42	192	7
TAP	42	240	2
TAP	42	288	6
TAP	42	312	1
TAP	42	336	5
TAP	42	360	2
TAP	43	0	3
TAP	43	0	4
TAP	43	24	5
TAP	43	48	3
TAP	43	96	6
TAP	43	144	3
TAP	43	168	4
TAP	43	192	2
TAP	43	240	6
TAP	43	288	4
TAP	43	312	5
TAP	43	336	3
TAP	43	360	6
TAP	44	0	2
TAP	44	24	4
TAP	44	48	3
TAP	44	96	6
TAP	44	144	4
TAP	44	168	5
TAP	44	192	2
TAP	44	240	6
TAP	44	288	5
TAP	44	312	6
TAP	44	336	7
TAP	44	360	0
TAP	45	0	1
TAP	45	0	6
TAP	45	24	7
TAP	45	48	0
TAP	45	96	7
TAP	45	144	1
TAP	45	168	6
TAP	45	192	2
TAP	45	240	5
TAP	45	288	4
TAP	45	312	3
TAP	45	336	5
TAP	45	360	4
TAP	46	0	6
TAP	46	24	4
TAP	46	48	5
TAP	46	96	0
TAP	46	144	7
TAP	46	168	0
TAP	46	192	6
TAP	46	240	1
TAP	46	288	5
TAP	46	312	2
TAP	46	336	4
TAP	46	360	3
TAP	47	0	2
TAP	47	0	4
TAP	47	24	5
TAP	47	48	3
TAP	47	96	6
TAP	47	144	0
TAP	47	168	7
TAP	47	192	1
TAP	47	240	5
TAP	47	288	0
TAP	47	312	7
TAP	47	336	0
TAP	47	360	5
TAP	48	0	0
TAP	48	24	3
TAP	48	48	1
TAP	48	96	5
TAP	48	144	2
TAP	48	192	4
TAP	48	216	3
TAP	48	240	4
TAP	48	288	3
TAP	48	312	4
TAP	48	336	5
TAP	48	360	6
TAP	49	0	7
TAP	49	24	0
TAP	49	48	7
TAP	49	72	0
TAP	49	96	7
TAP	49	144	1
TAP	49	144	6
TAP	49	168	1
TAP	49	168	6
TAP	49	192	0
TAP	49	192	7
BRK	49	288	7
TAP	50	0	1
TAP	50	24	6
TAP	50	48	0
TAP	50	96	7
TAP	50	120	1
TAP	50	144	7
TAP	50	168	1
TAP	50	192	6
TAP	50	216	2
TAP	50	240	6
TAP	50	288	3
TAP	50	312	4
TAP	50	336	2
TAP	50	360	5
TAP	51	0	6
TAP	51	24	3
TAP	51	48	7
TAP	51	96	1
TAP	51	120	0
TAP	51	144	1
TAP	51	168	0
TAP	51	192	2
TAP	51	216	3
TAP	51	240	2
TAP	51	288	5
TAP	51	312	4
TAP	51	336	6
TAP	51	360	3
TAP	52	0	5
TAP	52	24	4
TAP	52	48	5
TAP	52	96	3
TAP	52	120	4
TAP	52	144	3
TAP	52	168	4
TAP	52	192	2
TAP	52	216	5
TAP	52	240	2
TAP	52	288	5
TAP	52	312	2
TAP	52	336	6
TAP	52	360	1
TAP	53	0	7
TAP	53	24	0
TAP	53	48	7
TAP	53	72	0
TAP	53	96	6
TAP	53	120	1
TAP	53	144	6
TAP	53	168	1
TAP	53	192	5
TAP	53	216	2
TAP	53	240	5
TAP	53	264	2
TAP	53	288	4
TAP	53	312	3
TAP	53	336	4
TAP	53	360	3
TAP	54	0	5
TAP	54	24	2
TAP	54	48	6
TAP	54	72	1
TAP	54	96	7
TAP	54	120	0
TAP	54	144	6
TAP	54	168	1
TAP	54	192	7
TAP	54	216	0
TAP	54	240	6
TAP	54	264	1
TAP	54	288	7
TAP	54	312	0
TAP	54	336	6
TAP	54	360	1
TAP	55	0	5
TAP	55	24	2
TAP	55	48	4
TAP	55	72	3
TAP	55	96	4
TAP	55	120	2
TAP	55	144	5
TAP	55	168	1
TAP	55	192	4
TAP	55	216	0
TAP	55	240	5
TAP	55	264	1
TAP	55	288	6
TAP	55	312	2
TAP	55	336	7
TAP	55	360	3
TAP	56	0	6
TAP	56	24	2
TAP	56	48	5
TAP	56	72	1
TAP	56	96	4
TAP	56	120	0
TAP	56	144	3
TAP	56	168	7
TAP	56	192	2
TAP	56	192	6
TAP	56	216	3
TAP	56	216	7
TAP	56	240	0
TAP	56	240	4
TAP	56	264	1
TAP	56	264	5
TAP	56	288	2
STR	56	288	6
SI_	56	288	6	96	768	2
TAP	56	312	3
TAP	56	312	7
TAP	56	336	0
TAP	56	336	4
TAP	56	360	1
TAP	56	360	5
STR	58	288	1
SI_	58	288	1	96	768	5

T_REC_TAP	649
T_REC_BRK	2
T_REC_XTP	0
T_REC_HLD	0
T_REC_XHO	0
T_REC_STR	2
T_REC_BST	0
T_REC_XST	0
T_REC_TTP	0
T_REC_THO	0
T_REC_SLD	2
T_REC_ALL	655
T_NUM_TAP	651
T_NUM_BRK	2
T_NUM_HLD	0
T_NUM_SLD	2
T_NUM_ALL	655
T_JUDGE_TAP	653
T_JUDGE_HLD	0
T_JUDGE_SLD	2
T_JUDGE_ALL	655
TTM_EACHPAIRS	33
TTM_SCR_TAP	325500
TTM_SCR_BRK	5200
TTM_SCR_HLD	0
TTM_SCR_SLD	3000
TTM_SCR_ALL	333700
TTM_SCR_S	323500
TTM_SCR_SS	333500
TTM_RAT_ACV	10005

