VERSION	0.00.00	1.03.00
FES_MODE	0
BPM_DEF	180.000	180.000	180.000	180.000
MET_DEF	4	4
RESOLUTION	384
CLK_DEF	384
COMPATIBLE_CODE	MA2

BPM	0	0	180.000
MET	0	0	4	4

TAP	4	48	7
TAP	4	96	7
TAP	4	192	6
STR	4	240	5
SI_	4	240	5	96	96	0
TAP	8	96	1
TAP	8	144	2
TAP	8	192	3
TAP	8	240	2
TAP	8	288	1
TAP	8	336	0
HLD	9	0	7	336
TAP	9	144	6
TAP	9	240	6
TAP	9	336	5
HLD	10	0	5	336
TAP	10	144	4
TAP	10	240	4
TAP	10	336	3
HLD	11	0	3	336
TAP	11	144	2
TAP	11	240	2
TAP	11	336	1
TAP	12	48	0
TAP	12	96	0
TAP	12	192	7
TAP	12	240	7
HLD	13	0	0	336
TAP	13	144	1
TAP	13	240	1
TAP	13	336	2
HLD	14	0	2	336
TAP	14	144	3
TAP	14	240	3
TAP	14	336	4
HLD	15	0	4	336
TAP	15	144	5
TAP	15	240	5
TAP	15	336	6
TAP	16	48	7
TAP	16	96	6
TAP	16	144	7
TAP	16	192	0
TAP	16	240	1
TAP	16	288	0
BRK	16	336	7
HLD	17	0	6	96
TAP	17	96	5
HLD	17	144	6	96
TAP	17	240	7
TAP	17	336	0
TAP	18	48	1
TAP	18	96	2
TAP	18	144	1
TAP	18	240	0
TAP	18	336	7
HLD	19	0	7	96
TAP	19	96	6
HLD	19	144	6	96
TAP	19	240	5
TAP	19	336	6
TAP	20	48	7
TAP	20	96	0
TAP	20	144	1
TAP	20	240	2
TAP	20	336	1
HLD	21	0	1	96
TAP	21	96	0
HLD	21	144	1	96
TAP	21	240	2
TAP	21	336	3
TAP	22	48	4
TAP	22	96	5
TAP	22	144	4
TAP	22	240	3
TAP	22	336	2
HLD	23	0	2	96
TAP	23	96	1
HLD	23	144	1	96
TAP	23	240	0
TAP	23	336	7
TAP	24	48	6
TAP	24	96	5
TAP	24	144	6
TAP	24	240	7
TAP	25	0	0
TAP	25	48	1
TAP	25	96	2
TAP	25	144	0
TAP	25	192	7
TAP	25	240	6
TAP	25	288	5
HLD	25	336	4	96
TAP	26	48	3
TAP	26	96	2
TAP	26	144	1
TAP	26	192	2
TAP	26	240	3
TAP	26	288	4
HLD	26	336	5	96
TAP	27	48	6
TAP	27	96	7
HLD	27	144	0	96
TAP	27	240	7
TAP	27	288	5
HLD	27	336	3	96
TAP	28	48	4
TAP	28	72	5
TAP	28	96	6
HLD	28	144	6	48
TAP	28	192	5
TAP	28	240	4
TAP	28	288	3
TAP	28	336	2
TAP	29	0	0
TAP	29	48	1
TAP	29	96	2
TAP	29	144	0
TAP	29	192	7
TAP	29	240	6
TAP	29	288	5
HLD	29	336	4	96
TAP	30	48	3
TAP	30	96	2
TAP	30	144	1
TAP	30	192	2
TAP	30	240	3
TAP	30	288	4
HLD	30	336	5	96
TAP	31	48	6
TAP	31	96	7
HLD	31	144	0	96
TAP	31	240	7
TAP	31	288	5
HLD	31	336	3	96
TAP	32	48	4
TAP	32	72	5
TAP	32	96	6
HLD	32	144	6	48
TAP	32	192	5
TAP	32	240	3
TAP	32	288	1
TAP	32	336	7
HLD	33	0	6	96
TAP	33	48	5
TAP	33	96	4
HLD	33	144	5	96
TAP	33	240	6
HLD	33	336	7	96
TAP	34	48	0
TAP	34	96	1
TAP	34	144	0
TAP	34	192	7
TAP	34	240	6
TAP	34	288	5
TAP	34	336	4
HLD	35	0	3	96
TAP	35	48	2
TAP	35	96	1
HLD	35	144	2	96
TAP	35	240	3
HLD	35	336	4	96
TAP	36	48	5
TAP	36	96	6
TAP	36	144	5
TAP	36	192	4
TAP	36	240	3
TAP	36	288	2
TAP	36	336	1
HLD	37	0	0	96
TAP	37	48	7
TAP	37	96	6
HLD	37	144	7	96
TAP	37	240	0
HLD	37	336	0	96
TAP	38	48	1
TAP	38	96	2
TAP	38	144	1
TAP	38	192	0
TAP	38	240	7
TAP	38	288	6
TAP	38	336	5
HLD	39	0	4	96
TAP	39	48	3
TAP	39	96	2
HLD	39	144	4	96
TAP	39	240	5
STR	39	336	6
SI_	39	336	6	96	48	3
TAP	40	48	0
TAP	40	96	0
TAP	40	144	1
STR	40	144	2
SI_	40	144	2	96	48	7
TAP	40	240	0
BRK	40	288	0
STR	41	0	6
SCL	41	0	6	96	48	3
TAP	41	192	4
TAP	41	288	2
HLD	42	0	0	144
HLD	42	144	7	144
TAP	42	288	6
TAP	42	336	6
TAP	43	0	7
TAP	43	48	0
TAP	43	72	1
TAP	43	96	0
HLD	43	144	7	96
TAP	43	240	6
STR	43	336	5
SI_	43	336	5	96	48	0
TAP	44	96	1
TAP	44	144	1
TAP	44	168	2
TAP	44	192	3
TAP	44	240	5
TAP	44	288	3
TAP	44	336	1
STR	45	0	1
SCR	45	0	1	96	48	4
TAP	45	192	6
TAP	45	288	0
HLD	46	0	2	144
HLD	46	144	4	144
TAP	46	288	6
TAP	46	336	6
TAP	47	0	4
TAP	47	48	3
TAP	47	72	2
TAP	47	96	1
HLD	47	144	4	48
TAP	47	192	5
TAP	47	216	6
TAP	47	240	7
TAP	47	288	7
HLD	47	336	6	96
TAP	48	48	5
TAP	48	96	3
TAP	48	144	1
TAP	48	168	2
TAP	48	192	3
TAP	48	240	5
TAP	48	288	7
TAP	48	336	0
STR	49	0	7
SCR	49	0	7	96	48	2
TAP	49	192	0
TAP	49	288	6
HLD	50	0	4	144
HLD	50	144	2	144
TAP	50	288	0
TAP	50	336	0
TAP	51	0	2
TAP	51	48	3
TAP	51	72	4
TAP	51	96	3
HLD	51	144	2	192
TAP	51	240	1
STR	51	336	7
SI_	51	336	7	96	48	3
TAP	52	96	0
STR	52	144	1
SI_	52	144	1	96	48	5
TAP	52	192	1
TAP	52	240	0
TAP	52	288	7
TAP	52	336	6
STR	53	0	5
SI_	53	0	5	96	48	1
TAP	53	144	0
TAP	53	288	7
HLD	53	336	7	144
TAP	54	96	5
HLD	54	144	3	96
TAP	54	240	4
TAP	54	264	5
TAP	54	288	6
HLD	54	336	6	96
TAP	55	48	5
TAP	55	96	3
HLD	55	144	1	96
TAP	55	240	2
TAP	55	288	4
HLD	55	336	6	96
TAP	56	48	7
TAP	56	96	0
TAP	56	144	1
TAP	56	192	0
TAP	56	240	7
STR	56	288	6
SI_	56	288	6	96	192	3
STR	56	288	7
SI_	56	288	7	96	192	2

T_REC_TAP	218
T_REC_BRK	2
T_REC_XTP	0
T_REC_HLD	50
T_REC_XHO	0
T_REC_STR	12
T_REC_BST	0
T_REC_XST	0
T_REC_TTP	0
T_REC_THO	0
T_REC_SLD	12
T_REC_ALL	294
T_NUM_TAP	230
T_NUM_BRK	2
T_NUM_HLD	50
T_NUM_SLD	12
T_NUM_ALL	294
T_JUDGE_TAP	232
T_JUDGE_HLD	136
T_JUDGE_SLD	12
T_JUDGE_ALL	380
TTM_EACHPAIRS	2
TTM_SCR_TAP	115000
TTM_SCR_BRK	5200
TTM_SCR_HLD	50000
TTM_SCR_SLD	18000
TTM_SCR_ALL	188200
TTM_SCR_S	182400
TTM_SCR_SS	188000
TTM_RAT_ACV	10010

