VERSION	0.00.00	1.03.00
FES_MODE	0
BPM_DEF	180.000	180.000	180.000	180.000
MET_DEF	4	4
RESOLUTION	384
CLK_DEF	384
COMPATIBLE_CODE	MA2

BPM	0	0	180.000
MET	0	0	4	4

TAP	4	48	1
TAP	4	96	1
TAP	4	192	0
BRK	4	240	0
HLD	9	0	7	144
TAP	9	144	6
TAP	9	240	6
HLD	10	0	7	144
TAP	10	144	0
TAP	10	240	0
HLD	11	0	1	144
TAP	11	144	2
TAP	11	240	2
STR	12	0	1
SCL	12	0	1	96	96	6
HLD	13	0	5	144
TAP	13	144	4
TAP	13	240	4
HLD	14	0	5	144
TAP	14	144	6
TAP	14	240	6
HLD	15	0	7	144
TAP	15	144	0
TAP	15	240	0
STR	16	0	2
SI_	16	0	2	96	96	7
HLD	17	0	7	144
TAP	17	144	6
TAP	17	240	6
TAP	18	96	0
TAP	18	144	0
TAP	18	240	1
TAP	18	336	2
HLD	19	0	2	144
TAP	19	144	3
TAP	19	240	3
TAP	20	96	1
TAP	20	144	1
TAP	20	240	0
HLD	21	0	7	144
TAP	21	144	6
TAP	21	240	6
TAP	22	96	7
TAP	22	144	7
TAP	22	240	0
TAP	22	336	1
HLD	23	0	1	144
TAP	23	144	2
TAP	23	240	2
TAP	24	96	1
TAP	24	144	1
TAP	24	240	0
HLD	25	0	7	96
TAP	25	96	6
HLD	25	144	6	96
TAP	25	240	5
TAP	25	336	5
TAP	26	96	7
TAP	26	144	7
TAP	26	240	0
TAP	26	336	1
HLD	27	0	1	96
TAP	27	96	2
HLD	27	144	2	96
TAP	27	240	3
TAP	27	336	3
TAP	28	96	1
TAP	28	144	1
TAP	28	240	0
TAP	28	336	7
HLD	29	0	7	96
TAP	29	96	6
HLD	29	144	6	96
TAP	29	240	5
TAP	29	336	5
TAP	30	96	0
TAP	30	144	0
TAP	30	240	1
TAP	30	336	2
HLD	31	0	2	96
TAP	31	96	3
HLD	31	144	3	96
TAP	31	240	4
TAP	31	336	4
TAP	32	96	2
TAP	32	144	2
BRK	32	240	1
HLD	33	0	0	144
TAP	33	144	7
TAP	33	240	6
TAP	33	336	5
HLD	35	0	0	144
TAP	35	144	1
TAP	35	240	2
TAP	35	336	3
HLD	37	0	4	144
TAP	37	144	3
TAP	37	240	2
TAP	37	336	1
HLD	39	0	4	144
TAP	39	144	5
TAP	39	240	6
TAP	39	336	7
STR	41	0	0
SI_	41	0	0	96	48	4
TAP	41	192	7
TAP	41	288	6
HLD	42	0	5	144
HLD	42	144	4	144
TAP	42	288	3
HLD	42	336	3	720
STR	45	0	3
SI_	45	0	3	96	48	7
TAP	45	192	0
TAP	45	288	1
HLD	46	0	2	144
HLD	46	144	3	144
TAP	46	288	4
HLD	46	336	4	336
TAP	47	288	5
HLD	47	336	5	336
HLD	49	0	3	96
STR	49	0	7
SI_	49	0	7	96	48	3
TAP	49	192	0
TAP	49	288	1
HLD	50	0	2	144
HLD	50	144	3	144
TAP	50	288	4
HLD	50	336	4	720
STR	53	0	5
SI_	53	0	5	96	48	0
HLD	53	144	1	144
TAP	53	288	2
HLD	53	336	2	336
TAP	54	288	1
HLD	54	336	1	288
TAP	55	240	0
TAP	55	288	0
HLD	55	336	7	240
STR	56	192	5
SI_	56	192	5	96	48	1

T_REC_TAP	89
T_REC_BRK	2
T_REC_XTP	0
T_REC_HLD	37
T_REC_XHO	0
T_REC_STR	7
T_REC_BST	0
T_REC_XST	0
T_REC_TTP	0
T_REC_THO	0
T_REC_SLD	7
T_REC_ALL	142
T_NUM_TAP	96
T_NUM_BRK	2
T_NUM_HLD	37
T_NUM_SLD	7
T_NUM_ALL	142
T_JUDGE_TAP	98
T_JUDGE_HLD	143
T_JUDGE_SLD	7
T_JUDGE_ALL	248
TTM_EACHPAIRS	1
TTM_SCR_TAP	48000
TTM_SCR_BRK	5200
TTM_SCR_HLD	37000
TTM_SCR_SLD	10500
TTM_SCR_ALL	100700
TTM_SCR_S	97500
TTM_SCR_SS	100500
TTM_RAT_ACV	10019

