VERSION	0.00.00	1.03.00
FES_MODE	0
BPM_DEF	142.000	142.000	142.000	142.000
MET_DEF	4	4
RESOLUTION	384
CLK_DEF	384
COMPATIBLE_CODE	MA2

BPM	0	0	142.000
MET	0	0	4	4

BRK	5	0	0
TAP	5	192	4
TAP	5	288	4
TAP	6	0	5
TAP	6	96	5
TAP	6	192	5
TAP	6	288	5
TAP	7	0	2
TAP	7	0	4
TAP	7	96	1
TAP	7	96	4
TAP	7	192	0
TAP	7	192	4
TAP	7	240	1
TAP	7	288	4
BRK	7	336	1
TAP	8	0	5
TAP	8	96	5
TAP	8	192	5
TAP	8	288	5
TAP	9	0	2
TAP	9	96	2
TAP	9	192	2
TAP	9	288	2
TAP	10	0	3
TAP	10	96	3
TAP	10	192	3
TAP	10	288	3
TAP	11	0	2
TAP	11	0	5
TAP	11	96	2
TAP	11	96	6
TAP	11	192	2
TAP	11	192	7
TAP	11	240	6
TAP	11	288	2
BRK	11	336	6
STR	12	192	2
SCL	12	192	2	96	48	7
TAP	13	0	4
TAP	13	48	5
TAP	13	72	4
TAP	13	144	4
TAP	13	144	5
TAP	13	192	3
TAP	13	240	2
TAP	13	264	3
TAP	13	336	2
TAP	13	336	3
TAP	14	0	5
TAP	14	48	4
TAP	14	72	5
TAP	14	144	3
TAP	14	144	6
TAP	14	192	2
TAP	14	240	3
TAP	14	264	2
TAP	14	336	1
TAP	14	336	4
TAP	15	0	3
TAP	15	48	5
TAP	15	72	3
TAP	15	144	3
TAP	15	144	5
TAP	15	192	4
TAP	15	240	2
TAP	15	264	4
TAP	15	336	2
TAP	15	336	4
TAP	16	0	5
TAP	16	48	3
TAP	16	72	5
TAP	16	144	2
TAP	16	144	6
TAP	16	192	2
TAP	16	240	4
TAP	16	264	2
TAP	16	336	1
TAP	16	336	5
STR	17	0	4
SI_	17	0	4	96	48	1
TAP	17	48	5
TAP	17	72	4
TAP	17	144	3
STR	17	192	3
SI_	17	192	3	96	48	6
TAP	17	240	2
TAP	17	264	3
TAP	17	336	4
STR	18	0	5
SI_	18	0	5	96	48	0
TAP	18	48	4
TAP	18	72	5
TAP	18	144	3
STR	18	192	2
SI_	18	192	2	96	48	7
TAP	18	240	3
TAP	18	264	2
TAP	18	336	4
STR	19	0	3
SI_	19	0	3	96	48	7
TAP	19	48	5
TAP	19	72	3
TAP	19	144	4
STR	19	192	4
SI_	19	192	4	96	48	0
TAP	19	240	2
TAP	19	264	4
TAP	19	336	3
STR	20	0	5
SCR	20	0	5	96	48	0
TAP	20	48	3
TAP	20	72	5
TAP	20	144	3
STR	20	192	2
SCL	20	192	2	96	48	7
TAP	20	240	4
TAP	20	264	2
BRK	20	336	4
TAP	21	48	0
STR	21	96	0
SCR	21	96	0	96	48	3
TAP	21	144	0
HLD	21	192	4	72
HLD	21	264	5	72
HLD	21	336	6	96
TAP	22	48	7
STR	22	96	7
SCL	22	96	7	96	48	4
TAP	22	144	7
HLD	22	192	3	72
HLD	22	264	2	72
HLD	22	336	1	96
TAP	23	48	0
STR	23	96	0
SCL	23	96	0	96	48	5
TAP	23	144	0
HLD	23	192	4	72
HLD	23	264	3	72
HLD	23	336	2	96
TAP	24	48	1
STR	24	96	1
SCR	24	96	1	96	48	4
TAP	24	144	1
HLD	24	192	5	72
HLD	24	264	6	72
HLD	24	336	7	96
TAP	25	48	6
STR	25	96	6
SCL	25	96	6	96	48	3
TAP	25	144	6
HLD	25	192	2	72
HLD	25	264	1	72
HLD	25	336	0	96
TAP	26	48	7
STR	26	96	7
SCR	26	96	7	96	48	2
TAP	26	144	7
HLD	26	192	3	72
HLD	26	264	4	72
TAP	26	336	5
STR	27	0	7
SCR	27	0	7	96	48	2
STR	27	48	7
SCL	27	48	7	96	48	4
STR	27	192	3
SI_	27	192	3	96	48	0
STR	27	240	3
SI_	27	240	3	96	48	6
TAP	28	0	7
TAP	28	24	7
TAP	28	48	6
TAP	28	72	6
TAP	28	96	5
TAP	28	120	5
TAP	28	144	4
TAP	28	168	4
BRK	28	192	1
BRK	28	192	3
BRK	28	264	0
BRK	28	264	2
BRK	28	336	1
BRK	28	336	7
TAP	29	48	2
TAP	29	96	2
TAP	29	144	3
TAP	29	192	3
TAP	29	264	4
TAP	29	336	5
TAP	30	48	5
TAP	30	96	5
TAP	30	192	4
TAP	30	264	3
TAP	30	336	2
TAP	31	48	2
TAP	31	96	2
TAP	31	144	3
TAP	31	192	3
TAP	31	264	4
TAP	31	264	5
TAP	31	336	5
HLD	31	336	6	96
TAP	32	48	5
TAP	32	96	5
TAP	32	192	4
TAP	32	264	2
TAP	32	264	3
HLD	32	336	1	96
TAP	32	336	2
TAP	33	48	2
TAP	33	96	2
TAP	33	144	3
TAP	33	192	3
TAP	33	264	4
TAP	33	264	6
TAP	33	336	5
HLD	33	336	7	96
TAP	34	48	5
TAP	34	96	5
TAP	34	192	4
TAP	34	264	3
TAP	34	336	2
BRK	35	0	0
BRK	35	0	3
TAP	35	72	1
TAP	35	96	2
TAP	35	144	1
BRK	35	192	4
BRK	35	192	7
TAP	35	264	6
TAP	35	288	5
TAP	35	336	6
BRK	36	0	0
BRK	36	0	3
TAP	36	72	1
TAP	36	96	2
TAP	36	144	1
TAP	36	144	4
BRK	36	192	2
BRK	36	192	7
BRK	36	264	0
BRK	36	264	5
BRK	36	336	3
BRK	36	336	6
STR	37	48	0
SCR	37	48	0	96	48	3
STR	37	96	3
SCR	37	96	3	96	48	6
HLD	37	192	7	72
HLD	37	264	0	72
HLD	37	336	1	96
STR	38	48	7
SCL	38	48	7	96	48	4
STR	38	96	4
SCL	38	96	4	96	48	1
HLD	38	192	0	72
HLD	38	264	7	72
HLD	38	336	6	96
STR	39	48	5
SCR	39	48	5	96	48	0
STR	39	96	0
SCR	39	96	0	96	48	3
HLD	39	192	4	72
HLD	39	264	5	72
HLD	39	336	6	96
STR	40	48	2
SCL	40	48	2	96	48	7
STR	40	96	7
SCL	40	96	7	96	48	4
HLD	40	192	3	72
HLD	40	264	2	72
HLD	40	336	1	96
STR	41	48	6
SCR	41	48	6	96	48	1
STR	41	96	1
SCR	41	96	1	96	48	4
TAP	41	192	5
TAP	41	240	5
TAP	41	264	6
TAP	41	312	6
TAP	41	336	7
TAP	42	0	7
STR	42	48	1
SCL	42	48	1	96	48	6
STR	42	96	6
SCL	42	96	6	96	48	3
TAP	42	192	2
TAP	42	240	2
TAP	42	264	1
TAP	42	312	1
TAP	42	336	0
TAP	43	0	0
STR	43	48	6
SCR	43	48	6	96	48	1
STR	43	96	1
SCR	43	96	1	96	48	4
TAP	43	192	5
TAP	43	240	5
TAP	43	264	6
TAP	43	312	6
TAP	43	336	7
TAP	44	0	0
TAP	44	24	0
TAP	44	48	1
TAP	44	72	1
TAP	44	96	2
TAP	44	120	2
TAP	44	144	3
TAP	44	168	3
BRK	44	192	4
BRK	44	192	6
BRK	44	264	5
BRK	44	264	7
BRK	44	336	0
BRK	44	336	6
STR	45	0	1
SCR	45	0	1	96	48	4
TAP	45	72	1
STR	45	192	7
SI_	45	192	7	96	48	3
TAP	45	264	7
STR	46	0	0
SI_	46	0	0	96	48	4
TAP	46	72	0
STR	46	192	6
SCL	46	192	6	96	48	3
TAP	46	264	6
HLD	47	0	1	72
HLD	47	72	2	72
HLD	47	144	3	48
HLD	47	192	6	72
HLD	47	264	5	72
HLD	47	336	4	48
HLD	48	0	1	72
HLD	48	72	2	72
HLD	48	144	3	48
HLD	48	192	6	72
HLD	48	264	5	72
TAP	48	336	4

T_REC_TAP	194
T_REC_BRK	28
T_REC_XTP	0
T_REC_HLD	43
T_REC_XHO	0
T_REC_STR	37
T_REC_BST	0
T_REC_XST	0
T_REC_TTP	0
T_REC_THO	0
T_REC_SLD	37
T_REC_ALL	339
T_NUM_TAP	231
T_NUM_BRK	28
T_NUM_HLD	43
T_NUM_SLD	37
T_NUM_ALL	339
T_JUDGE_TAP	259
T_JUDGE_HLD	83
T_JUDGE_SLD	37
T_JUDGE_ALL	379
TTM_EACHPAIRS	33
TTM_SCR_TAP	115500
TTM_SCR_BRK	72800
TTM_SCR_HLD	43000
TTM_SCR_SLD	55500
TTM_SCR_ALL	286800
TTM_SCR_S	275500
TTM_SCR_SS	284000
TTM_RAT_ACV	10098

