VERSION	0.00.00	1.03.00
FES_MODE	0
BPM_DEF	142.000	142.000	142.000	142.000
MET_DEF	4	4
RESOLUTION	384
CLK_DEF	384
COMPATIBLE_CODE	MA2

BPM	0	0	142.000
MET	0	0	4	4

HLD	5	0	6	672
TAP	7	0	7
TAP	7	96	0
TAP	7	192	1
TAP	7	240	1
HLD	7	336	1	336
STR	9	0	2
SCL	9	0	2	96	288	7
STR	10	0	5
SCR	10	0	5	96	288	0
TAP	11	0	1
TAP	11	96	1
TAP	11	192	2
TAP	11	240	2
HLD	11	336	3	240
BRK	12	288	0
BRK	12	288	7
TAP	13	0	0
TAP	13	48	7
TAP	13	96	1
TAP	13	144	6
TAP	13	192	2
TAP	13	240	6
TAP	13	288	3
TAP	13	336	5
TAP	14	0	0
TAP	14	48	5
TAP	14	96	1
TAP	14	144	4
TAP	14	192	2
TAP	14	240	4
TAP	14	288	4
TAP	14	288	5
TAP	14	336	5
TAP	14	336	6
TAP	15	0	3
TAP	15	48	2
TAP	15	96	3
TAP	15	144	2
TAP	15	192	1
TAP	15	240	2
TAP	15	288	1
TAP	15	336	2
TAP	16	0	0
TAP	16	48	1
TAP	16	96	0
TAP	16	144	1
TAP	16	192	7
TAP	16	240	0
TAP	16	288	7
BRK	16	336	0
TAP	17	0	0
TAP	17	48	1
HLD	17	72	1	72
TAP	17	144	2
TAP	17	192	2
TAP	17	240	3
HLD	17	264	3	72
TAP	17	336	4
TAP	18	0	7
TAP	18	48	6
HLD	18	72	6	72
TAP	18	144	5
TAP	18	192	5
TAP	18	240	4
HLD	18	264	4	72
TAP	18	336	3
TAP	19	0	2
TAP	19	48	3
HLD	19	72	3	72
TAP	19	144	4
TAP	19	192	4
TAP	19	240	5
HLD	19	264	5	72
TAP	19	336	6
TAP	20	0	6
TAP	20	48	7
HLD	20	72	7	72
TAP	20	144	0
TAP	20	192	0
TAP	20	240	1
HLD	20	264	2	72
TAP	20	336	3
TAP	21	0	7
TAP	21	48	1
TAP	21	96	7
TAP	21	144	0
TAP	21	192	7
TAP	21	240	3
HLD	21	264	3	72
TAP	21	336	4
TAP	22	0	4
TAP	22	48	5
TAP	22	96	4
TAP	22	144	6
TAP	22	192	4
TAP	22	240	1
HLD	22	264	1	72
TAP	22	336	7
TAP	23	0	6
TAP	23	48	5
TAP	23	96	6
TAP	23	144	4
TAP	23	192	6
TAP	23	240	7
HLD	23	264	7	72
TAP	23	336	0
TAP	24	0	1
TAP	24	48	2
TAP	24	96	3
TAP	24	144	2
TAP	24	192	0
TAP	24	240	6
HLD	24	264	6	72
TAP	24	336	5
TAP	25	0	3
TAP	25	48	3
TAP	25	96	2
TAP	25	144	2
TAP	25	192	1
TAP	25	240	1
TAP	25	288	0
TAP	25	336	0
TAP	26	0	3
TAP	26	48	3
TAP	26	96	4
TAP	26	144	4
TAP	26	192	5
TAP	26	240	5
TAP	26	288	6
TAP	26	336	6
TAP	27	0	7
TAP	27	48	6
TAP	27	96	5
TAP	27	144	4
TAP	27	192	5
TAP	27	240	7
TAP	27	288	1
TAP	27	336	3
TAP	28	0	4
TAP	28	24	5
TAP	28	48	4
TAP	28	72	5
TAP	28	96	4
TAP	28	120	5
TAP	28	144	4
TAP	28	168	5
TAP	28	192	4
TAP	28	192	5
TAP	28	264	1
TAP	28	264	2
BRK	28	336	6
BRK	28	336	7
HLD	29	0	0	192
TAP	29	192	1
TAP	29	264	2
HLD	29	336	3	192
TAP	30	192	3
TAP	30	264	1
HLD	30	336	7	240
TAP	31	192	6
TAP	31	264	5
HLD	31	336	4	192
TAP	32	192	4
TAP	32	264	6
HLD	32	336	0	96
TAP	33	48	1
HLD	33	96	1	96
TAP	33	192	0
TAP	33	264	7
TAP	33	336	6
TAP	34	48	4
HLD	34	96	4	96
TAP	34	192	5
TAP	34	264	6
TAP	34	336	7
HLD	35	0	0	96
TAP	35	0	1
TAP	35	96	1
HLD	35	192	2	96
TAP	35	192	3
TAP	35	288	3
HLD	36	0	4	96
TAP	36	0	5
TAP	36	96	5
TAP	36	192	6
TAP	36	192	7
TAP	36	264	0
TAP	36	264	7
BRK	36	336	0
BRK	36	336	1
TAP	37	0	1
TAP	37	24	0
TAP	37	48	1
TAP	37	72	0
TAP	37	96	1
TAP	37	144	1
TAP	37	168	2
TAP	37	192	1
TAP	37	216	2
TAP	37	240	1
TAP	37	288	1
TAP	37	312	0
TAP	37	336	7
TAP	38	0	6
TAP	38	24	5
TAP	38	48	6
TAP	38	72	5
TAP	38	96	6
TAP	38	144	6
TAP	38	168	7
TAP	38	192	6
TAP	38	216	7
TAP	38	240	6
TAP	38	288	6
TAP	38	312	5
TAP	38	336	4
TAP	39	0	3
TAP	39	24	1
TAP	39	48	3
TAP	39	72	1
TAP	39	96	3
TAP	39	144	3
TAP	39	168	5
TAP	39	192	3
TAP	39	216	5
TAP	39	240	3
TAP	39	288	3
TAP	39	312	1
TAP	39	336	7
TAP	40	0	6
TAP	40	24	5
TAP	40	48	6
TAP	40	72	5
TAP	40	96	6
TAP	40	144	4
TAP	40	168	3
TAP	40	192	4
TAP	40	216	3
TAP	40	240	4
TAP	40	288	6
TAP	40	312	7
BRK	40	336	0
TAP	41	0	0
TAP	41	24	1
TAP	41	48	0
TAP	41	72	2
TAP	41	96	0
TAP	41	144	0
TAP	41	168	7
TAP	41	192	0
TAP	41	216	6
TAP	41	240	0
TAP	41	288	0
TAP	41	312	1
TAP	41	336	2
TAP	42	0	3
TAP	42	24	4
TAP	42	48	3
TAP	42	72	5
TAP	42	96	3
TAP	42	144	3
TAP	42	168	2
TAP	42	192	3
TAP	42	216	1
TAP	42	240	3
TAP	42	288	3
TAP	42	312	4
TAP	42	336	5
TAP	42	360	6
TAP	43	0	7
TAP	43	48	7
TAP	43	96	5
TAP	43	144	5
TAP	43	192	3
TAP	43	240	3
TAP	43	288	1
TAP	43	336	1
TAP	44	0	0
TAP	44	24	2
TAP	44	48	0
TAP	44	72	2
TAP	44	96	0
TAP	44	120	4
TAP	44	144	0
TAP	44	168	4
TAP	44	192	2
TAP	44	264	3
TAP	44	264	7
BRK	44	336	1
BRK	44	336	5
HLD	45	96	0	96
HLD	45	192	2	96
HLD	45	288	4	96
HLD	46	0	6	96
HLD	46	96	2	96
HLD	46	192	4	96
HLD	46	288	0	96
TAP	47	0	1
TAP	47	48	1
TAP	47	96	0
TAP	47	144	0
TAP	47	192	7
TAP	47	240	7
TAP	47	288	6
TAP	47	336	6
TAP	48	0	4
TAP	48	24	5
TAP	48	48	4
TAP	48	72	5
TAP	48	96	3
TAP	48	120	4
TAP	48	144	3
TAP	48	168	4
TAP	48	192	2
TAP	48	216	3
TAP	48	240	2
TAP	48	264	3
TAP	48	288	1
TAP	48	312	0
TAP	48	336	7
TAP	48	360	6

T_REC_TAP	276
T_REC_BRK	10
T_REC_XTP	0
T_REC_HLD	32
T_REC_XHO	0
T_REC_STR	2
T_REC_BST	0
T_REC_XST	0
T_REC_TTP	0
T_REC_THO	0
T_REC_SLD	2
T_REC_ALL	322
T_NUM_TAP	278
T_NUM_BRK	10
T_NUM_HLD	32
T_NUM_SLD	2
T_NUM_ALL	322
T_JUDGE_TAP	288
T_JUDGE_HLD	93
T_JUDGE_SLD	2
T_JUDGE_ALL	383
TTM_EACHPAIRS	14
TTM_SCR_TAP	139000
TTM_SCR_BRK	26000
TTM_SCR_HLD	32000
TTM_SCR_SLD	3000
TTM_SCR_ALL	200000
TTM_SCR_S	193050
TTM_SCR_SS	199000
TTM_RAT_ACV	10050

