VERSION	0.00.00	1.03.00
FES_MODE	0
BPM_DEF	142.000	142.000	142.000	142.000
MET_DEF	4	4
RESOLUTION	384
CLK_DEF	384
COMPATIBLE_CODE	MA2

BPM	0	0	142.000
MET	0	0	4	4

HLD	5	0	4	864
TAP	7	0	5
HLD	7	96	0	144
TAP	7	192	7
BRK	7	240	7
TAP	11	0	1
TAP	11	96	2
TAP	11	192	3
STR	11	240	3
SI_	11	240	3	96	144	7
TAP	13	0	7
TAP	13	48	7
TAP	13	96	7
TAP	13	192	1
TAP	13	240	1
TAP	13	288	1
TAP	14	0	5
TAP	14	48	5
TAP	14	96	5
TAP	14	192	3
TAP	14	240	3
TAP	14	288	3
TAP	15	0	4
TAP	15	48	4
TAP	15	96	4
TAP	15	192	2
TAP	15	240	2
TAP	15	288	2
TAP	16	0	6
TAP	16	48	6
TAP	16	96	6
TAP	16	192	0
TAP	16	240	0
TAP	16	288	0
TAP	17	0	7
TAP	17	48	7
TAP	17	96	6
TAP	17	144	6
TAP	17	192	5
TAP	17	240	5
TAP	17	288	4
TAP	18	0	6
TAP	18	48	6
TAP	18	96	7
TAP	18	144	7
TAP	18	192	0
TAP	18	240	0
TAP	18	288	1
TAP	19	0	0
TAP	19	48	0
TAP	19	96	7
TAP	19	144	7
TAP	19	192	6
TAP	19	240	6
TAP	19	288	5
TAP	20	0	6
TAP	20	0	7
TAP	20	96	0
TAP	20	96	7
TAP	20	192	0
TAP	20	192	1
BRK	20	288	0
BRK	20	288	7
HLD	21	0	6	96
TAP	21	96	5
TAP	21	192	6
TAP	21	264	7
TAP	21	336	0
HLD	22	0	0	96
TAP	22	96	1
TAP	22	192	0
TAP	22	264	7
TAP	22	336	6
HLD	23	0	6	96
TAP	23	96	5
TAP	23	192	6
TAP	23	264	7
TAP	23	336	0
HLD	24	0	0	96
TAP	24	96	1
TAP	24	192	0
TAP	24	264	6
TAP	24	336	4
TAP	25	0	3
TAP	25	48	3
TAP	25	96	2
TAP	25	192	3
TAP	25	240	3
TAP	25	288	4
TAP	26	0	3
TAP	26	48	3
TAP	26	96	2
TAP	26	192	1
TAP	26	240	1
TAP	26	288	0
TAP	27	0	1
TAP	27	48	1
TAP	27	96	2
TAP	27	144	2
TAP	27	192	3
TAP	27	240	3
TAP	27	288	4
TAP	27	336	4
STR	28	0	5
SI_	28	0	5	96	48	0
BRK	28	288	7
HLD	29	0	6	672
TAP	29	96	5
TAP	29	288	4
TAP	30	96	3
TAP	30	288	2
HLD	31	0	1	672
TAP	31	96	0
TAP	31	288	7
TAP	32	96	6
TAP	32	288	5
HLD	33	0	4	672
TAP	33	96	5
TAP	33	288	6
TAP	34	96	7
TAP	34	288	0
HLD	35	0	1	288
TAP	35	96	2
TAP	35	288	3
HLD	36	0	1	288
TAP	36	96	0
BRK	36	288	7
TAP	37	0	6
TAP	37	48	5
TAP	37	96	6
TAP	37	192	7
TAP	37	264	0
HLD	37	336	1	96
TAP	38	48	2
TAP	38	96	2
TAP	38	192	1
TAP	38	264	0
HLD	38	336	7	96
TAP	39	48	6
TAP	39	96	6
TAP	39	192	7
TAP	39	264	0
HLD	39	336	1	96
TAP	40	48	2
TAP	40	96	2
TAP	40	192	0
TAP	40	192	1
TAP	40	264	0
TAP	40	264	7
TAP	40	336	6
TAP	40	336	7
TAP	41	48	0
TAP	41	96	0
TAP	41	192	1
TAP	41	264	2
HLD	41	336	3	96
TAP	42	48	4
TAP	42	96	4
TAP	42	192	3
TAP	42	264	2
HLD	42	336	1	96
TAP	43	48	0
TAP	43	96	0
TAP	43	192	1
TAP	43	264	2
TAP	43	336	3
TAP	44	0	2
TAP	44	48	2
TAP	44	96	1
TAP	44	144	1
TAP	44	192	0
TAP	44	240	0
TAP	44	288	7
BRK	44	336	7
HLD	45	0	6	72
HLD	45	192	5	72
HLD	46	0	6	72
HLD	46	192	7	72
HLD	47	0	0	72
HLD	47	192	1	72
HLD	48	0	2	72
STR	48	192	3
SI_	48	192	3	96	48	7

T_REC_TAP	148
T_REC_BRK	6
T_REC_XTP	0
T_REC_HLD	23
T_REC_XHO	0
T_REC_STR	3
T_REC_BST	0
T_REC_XST	0
T_REC_TTP	0
T_REC_THO	0
T_REC_SLD	3
T_REC_ALL	183
T_NUM_TAP	151
T_NUM_BRK	6
T_NUM_HLD	23
T_NUM_SLD	3
T_NUM_ALL	183
T_JUDGE_TAP	157
T_JUDGE_HLD	107
T_JUDGE_SLD	3
T_JUDGE_ALL	267
TTM_EACHPAIRS	7
TTM_SCR_TAP	75500
TTM_SCR_BRK	15600
TTM_SCR_HLD	23000
TTM_SCR_SLD	4500
TTM_SCR_ALL	118600
TTM_SCR_S	114500
TTM_SCR_SS	118000
TTM_RAT_ACV	10050

