VERSION	0.00.00	1.03.00
FES_MODE	0
BPM_DEF	142.000	142.000	142.000	142.000
MET_DEF	4	4
RESOLUTION	384
CLK_DEF	384
COMPATIBLE_CODE	MA2

BPM	0	0	142.000
MET	0	0	4	4

TAP	5	0	1
TAP	6	0	2
TAP	7	0	3
TAP	8	0	4
TAP	9	0	5
TAP	10	0	6
TAP	11	0	7
BRK	12	0	0
TAP	13	0	1
TAP	13	192	1
TAP	14	0	2
TAP	14	192	2
TAP	15	0	1
TAP	15	192	1
TAP	16	0	0
TAP	16	192	0
TAP	17	0	6
TAP	17	0	7
TAP	17	192	5
TAP	18	0	6
TAP	18	0	7
TAP	18	192	0
TAP	19	0	1
TAP	19	0	2
TAP	19	192	3
TAP	20	0	1
TAP	20	0	2
TAP	20	192	0
TAP	21	96	7
TAP	21	192	7
TAP	21	288	7
TAP	22	96	6
TAP	22	192	6
TAP	22	288	6
TAP	23	96	7
TAP	23	192	7
TAP	23	288	7
TAP	24	96	0
TAP	24	192	0
TAP	24	288	0
TAP	25	96	1
TAP	25	192	1
TAP	25	288	1
TAP	26	96	2
TAP	26	192	2
TAP	26	288	2
TAP	27	0	1
TAP	27	96	0
TAP	27	192	7
TAP	27	288	6
TAP	28	0	5
TAP	28	96	4
TAP	28	192	3
STR	28	288	2
SI_	28	288	2	96	192	6
HLD	31	0	7	672
HLD	33	0	0	672
TAP	35	0	1
TAP	35	192	2
TAP	36	0	1
BRK	36	192	0
TAP	37	96	6
TAP	37	96	7
TAP	37	192	6
TAP	37	288	6
TAP	37	288	7
TAP	38	96	0
TAP	38	96	1
TAP	38	192	0
TAP	38	288	0
TAP	38	288	1
TAP	39	96	6
TAP	39	96	7
TAP	39	192	7
TAP	39	288	6
TAP	39	288	7
TAP	40	96	1
TAP	40	96	2
TAP	40	192	1
TAP	40	288	1
TAP	40	288	2
TAP	41	96	0
TAP	41	192	7
TAP	41	288	6
TAP	42	96	0
TAP	42	192	1
TAP	42	288	2
TAP	43	0	1
TAP	43	96	1
TAP	43	192	0
TAP	43	288	0
TAP	44	0	0
TAP	44	0	7
TAP	44	96	6
TAP	44	96	7
TAP	44	192	5
TAP	44	192	6
BRK	44	288	6
BRK	44	288	7
TAP	45	0	0
TAP	45	192	0
TAP	46	0	1
TAP	46	192	1
TAP	47	0	2
TAP	47	192	2
TAP	48	0	3
STR	48	192	3
SI_	48	192	3	96	96	7

T_REC_TAP	98
T_REC_BRK	4
T_REC_XTP	0
T_REC_HLD	2
T_REC_XHO	0
T_REC_STR	2
T_REC_BST	0
T_REC_XST	0
T_REC_TTP	0
T_REC_THO	0
T_REC_SLD	2
T_REC_ALL	108
T_NUM_TAP	100
T_NUM_BRK	4
T_NUM_HLD	2
T_NUM_SLD	2
T_NUM_ALL	108
T_JUDGE_TAP	104
T_JUDGE_HLD	28
T_JUDGE_SLD	2
T_JUDGE_ALL	134
TTM_EACHPAIRS	16
TTM_SCR_TAP	50000
TTM_SCR_BRK	10400
TTM_SCR_HLD	2000
TTM_SCR_SLD	3000
TTM_SCR_ALL	65400
TTM_SCR_S	63050
TTM_SCR_SS	65000
TTM_RAT_ACV	10061

