VERSION	0.00.00	1.03.00
FES_MODE	0
BPM_DEF	140.000	140.000	140.000	140.000
MET_DEF	4	4
RESOLUTION	384
CLK_DEF	384
COMPATIBLE_CODE	MA2

BPM	0	0	140.000
MET	0	0	4	4

HLD	1	0	1	576
TAP	1	192	2
HLD	2	0	3	576
TAP	3	0	4
HLD	3	192	5	384
TAP	4	0	6
TAP	4	192	7
TAP	4	288	0
TAP	5	0	0
TAP	5	24	0
TAP	5	48	1
TAP	5	72	2
TAP	5	96	2
TAP	5	144	7
TAP	5	168	7
TAP	5	192	6
TAP	5	216	5
TAP	5	240	5
TAP	5	288	0
TAP	5	312	0
TAP	5	336	7
TAP	5	360	7
TAP	6	0	0
TAP	6	24	7
TAP	6	48	0
TAP	6	72	7
TAP	6	96	0
TAP	6	144	4
TAP	6	168	3
TAP	6	192	4
TAP	6	216	3
TAP	6	240	4
TAP	6	288	1
TAP	6	312	0
TAP	6	336	7
TAP	6	360	6
TAP	7	0	1
TAP	7	24	1
TAP	7	48	2
TAP	7	72	3
TAP	7	96	3
TAP	7	144	6
TAP	7	168	6
TAP	7	192	5
TAP	7	216	4
TAP	7	240	4
TAP	7	288	3
TAP	7	312	3
TAP	7	336	4
TAP	7	360	4
TAP	8	0	2
TAP	8	24	3
TAP	8	48	2
TAP	8	72	1
TAP	8	96	0
TAP	8	144	5
TAP	8	168	4
TAP	8	192	5
TAP	8	216	6
TAP	8	240	7
TAP	8	288	6
TAP	8	312	7
BRK	8	336	0
HLD	9	0	1	96
TAP	9	24	0
TAP	9	48	7
TAP	9	72	6
TAP	9	96	5
HLD	9	144	6	96
TAP	9	168	7
TAP	9	192	0
TAP	9	216	1
TAP	9	240	2
TAP	9	288	4
TAP	9	312	4
TAP	9	336	3
TAP	9	360	3
HLD	10	0	1	96
TAP	10	24	2
TAP	10	48	3
TAP	10	72	4
TAP	10	96	5
HLD	10	144	7	96
TAP	10	168	6
TAP	10	192	5
TAP	10	216	4
TAP	10	240	3
TAP	10	288	1
TAP	10	312	0
TAP	10	336	7
TAP	10	360	6
STR	11	0	0
SI_	11	0	0	96	24	4
TAP	11	24	7
TAP	11	48	0
TAP	11	72	7
STR	11	144	3
SI_	11	144	3	96	24	7
TAP	11	168	4
TAP	11	192	3
TAP	11	216	4
TAP	11	288	1
TAP	11	312	6
TAP	11	336	2
TAP	11	360	5
TAP	12	0	7
TAP	12	12	0
TAP	12	24	1
TAP	12	36	2
TAP	12	48	3
TAP	12	60	4
TAP	12	72	5
TAP	12	84	6
TAP	12	96	7
TAP	12	108	0
TAP	12	120	1
TAP	12	132	2
TAP	12	144	3
TAP	12	156	4
TAP	12	168	5
TAP	12	180	6
TAP	12	192	7
TAP	12	204	6
TAP	12	216	5
TAP	12	228	4
TAP	12	240	3
TAP	12	252	2
TAP	12	264	1
TAP	12	276	0
TAP	12	288	7
TAP	12	300	6
TAP	12	312	5
TAP	12	324	4
TAP	12	336	3
TAP	12	348	2
BRK	12	360	1
HLD	13	0	6	96
TAP	13	72	5
TAP	13	96	5
TAP	13	144	4
TAP	13	216	4
STR	13	240	3
SI_	13	240	3	96	24	7
TAP	13	288	1
TAP	13	336	0
HLD	14	0	1	96
TAP	14	72	2
TAP	14	96	2
TAP	14	144	6
STR	14	216	4
SI_	14	216	4	96	48	0
TAP	14	288	6
TAP	14	336	7
HLD	15	0	0	96
TAP	15	72	1
TAP	15	96	2
TAP	15	144	0
TAP	15	144	7
TAP	15	216	6
STR	15	240	5
SI_	15	240	5	96	24	2
TAP	15	288	4
TAP	15	336	3
TAP	16	0	0
TAP	16	24	1
TAP	16	48	0
TAP	16	96	7
TAP	16	144	6
TAP	16	168	5
TAP	16	192	4
TAP	16	216	3
TAP	16	240	2
TAP	16	264	1
TAP	16	288	7
TAP	16	312	6
TAP	16	336	5
BRK	16	360	4
HLD	17	0	1	96
TAP	17	72	2
TAP	17	96	2
TAP	17	144	6
TAP	17	216	3
STR	17	240	4
SI_	17	240	4	96	24	0
TAP	17	288	6
TAP	17	336	7
HLD	18	0	6	96
TAP	18	72	5
TAP	18	96	5
TAP	18	144	4
STR	18	216	3
SI_	18	216	3	96	48	7
TAP	18	288	1
TAP	18	336	0
STR	19	0	7
SCR	19	0	7	96	24	2
TAP	19	72	7
TAP	19	144	3
TAP	19	144	4
TAP	19	216	7
STR	19	240	0
SCL	19	240	0	96	24	5
TAP	19	288	0
TAP	19	336	4
TAP	20	0	1
TAP	20	24	2
TAP	20	48	1
TAP	20	72	3
TAP	20	96	3
TAP	20	144	6
TAP	20	168	5
TAP	20	192	6
TAP	20	216	4
TAP	20	240	4
TAP	20	288	0
TAP	20	312	0
TAP	20	336	7
TAP	20	360	7
HLD	21	0	5	240
TAP	21	72	6
TAP	21	96	6
TAP	21	144	7
TAP	21	216	0
HLD	21	240	0	144
TAP	21	288	1
TAP	21	336	2
HLD	22	0	2	216
TAP	22	72	3
TAP	22	96	3
TAP	22	144	4
HLD	22	216	4	120
TAP	22	288	5
TAP	22	336	3
HLD	23	0	2	240
TAP	23	72	5
TAP	23	96	5
TAP	23	144	6
TAP	23	216	6
HLD	23	240	6	96
TAP	23	288	1
TAP	23	336	1
TAP	24	0	5
TAP	24	24	4
TAP	24	48	5
TAP	24	72	4
TAP	24	96	5
TAP	24	144	2
TAP	24	168	3
TAP	24	192	2
TAP	24	216	3
TAP	24	240	2
TAP	24	288	6
TAP	24	312	0
TAP	24	336	7
TAP	24	360	1
TAP	25	0	1
TAP	25	24	0
TAP	25	48	1
TAP	25	72	0
TAP	25	96	1
STR	25	144	7
SI_	25	144	7	96	24	4
TAP	25	216	4
TAP	25	240	7
TAP	25	288	0
TAP	25	336	0
TAP	26	0	6
TAP	26	24	7
TAP	26	48	6
TAP	26	72	7
TAP	26	96	6
STR	26	144	0
SI_	26	144	0	96	24	3
TAP	26	216	3
TAP	26	240	0
TAP	26	288	4
TAP	26	336	4
TAP	27	0	2
TAP	27	24	3
TAP	27	48	2
TAP	27	72	3
TAP	27	96	2
TAP	27	144	5
TAP	27	168	4
TAP	27	192	5
TAP	27	216	4
TAP	27	240	5
TAP	27	288	3
TAP	27	288	4
TAP	27	312	3
TAP	27	312	4
TAP	27	336	3
TAP	27	336	4
TAP	28	0	2
TAP	28	24	4
TAP	28	48	3
BRK	28	72	5
TAP	28	96	2
TAP	28	120	4
TAP	28	144	3
BRK	28	168	5
TAP	28	192	2
TAP	28	216	3
TAP	28	240	5
BRK	28	264	4
TAP	28	288	2
TAP	28	312	4
TAP	28	336	3
BRK	28	360	5
TAP	29	0	0
TAP	29	0	4
TAP	29	72	2
TAP	29	72	6
TAP	29	96	2
TAP	29	96	6
TAP	29	144	1
TAP	29	144	5
TAP	29	216	3
TAP	29	216	7
TAP	29	288	0
TAP	29	288	7
TAP	29	312	0
TAP	29	312	6
BRK	29	336	0
BRK	29	336	5
HLD	30	0	5	168
TAP	30	48	3
TAP	30	72	4
TAP	30	120	3
TAP	30	168	2
TAP	30	216	1
TAP	30	240	7
TAP	30	264	0
TAP	30	288	6
TAP	30	336	1
TAP	30	336	6
TAP	31	0	1
TAP	31	24	0
TAP	31	48	1
TAP	31	72	0
TAP	31	96	7
TAP	31	120	6
TAP	31	144	7
TAP	31	168	6
TAP	31	192	0
TAP	31	216	7
TAP	31	240	1
TAP	31	264	6
TAP	31	288	0
TAP	31	312	7
TAP	31	336	1
TAP	31	360	6
TAP	32	0	3
TAP	32	24	4
TAP	32	48	2
TAP	32	72	5
TAP	32	96	3
TAP	32	120	4
TAP	32	144	2
TAP	32	168	5
TAP	32	192	2
TAP	32	216	3
TAP	32	240	2
TAP	32	264	3
TAP	32	288	4
TAP	32	312	5
TAP	32	336	4
TAP	32	360	5
TAP	33	0	1
TAP	33	24	0
TAP	33	48	7
TAP	33	72	6
TAP	33	96	7
TAP	33	120	0
TAP	33	144	1
HLD	33	168	2	120
BRK	33	288	3
TAP	34	0	2
TAP	34	24	1
TAP	34	48	2
TAP	34	72	0
TAP	34	96	2
TAP	34	120	7
TAP	34	144	2
TAP	34	168	6
TAP	34	192	2
TAP	34	216	5
TAP	34	240	2
TAP	34	264	4
TAP	34	288	2
TAP	34	312	3
TAP	34	336	2
TAP	34	360	3
TAP	35	0	2
TAP	35	24	3
TAP	35	48	1
TAP	35	72	4
TAP	35	96	0
TAP	35	120	5
TAP	35	144	7
TAP	35	168	6
TAP	35	192	7
TAP	35	216	6
TAP	35	240	0
TAP	35	264	5
TAP	35	288	1
TAP	35	312	4
TAP	35	336	2
TAP	35	360	3
TAP	36	0	4
TAP	36	24	5
TAP	36	48	4
TAP	36	72	5
TAP	36	96	7
TAP	36	120	6
TAP	36	144	7
TAP	36	168	6
TAP	36	192	1
TAP	36	216	0
TAP	36	240	1
TAP	36	264	0
TAP	36	288	2
TAP	36	312	3
TAP	36	336	2
TAP	36	360	3
TAP	37	0	1
TAP	37	48	0
TAP	37	96	7
HLD	37	144	6	192
STR	37	240	0
SCL	37	240	0	96	24	5
TAP	37	288	0
TAP	38	0	1
TAP	38	24	1
TAP	38	48	2
TAP	38	72	3
TAP	38	96	3
TAP	38	144	6
TAP	38	168	6
TAP	38	192	5
TAP	38	216	4
TAP	38	240	4
TAP	38	288	2
TAP	38	312	4
TAP	38	336	5
TAP	38	360	3
TAP	39	0	1
TAP	39	24	2
TAP	39	48	1
TAP	39	72	2
TAP	39	96	1
TAP	39	96	2
TAP	39	144	6
TAP	39	168	5
TAP	39	192	6
TAP	39	216	5
TAP	39	240	5
TAP	39	240	6
TAP	39	288	0
TAP	39	312	6
TAP	39	336	1
TAP	39	360	7
TAP	40	0	1
TAP	40	24	0
TAP	40	48	4
TAP	40	72	5
TAP	40	96	4
TAP	40	144	7
TAP	40	168	6
TAP	40	192	2
TAP	40	216	3
TAP	40	240	2
TAP	40	288	3
TAP	40	312	3
TAP	40	336	4
TAP	40	360	4
TAP	41	0	0
TAP	41	24	6
TAP	41	48	1
TAP	41	72	7
TAP	41	96	2
TAP	41	120	6
TAP	41	144	3
TAP	41	168	5
TAP	41	192	0
TAP	41	216	6
TAP	41	240	1
TAP	41	264	7
TAP	41	288	2
TAP	41	312	4
TAP	41	336	3
TAP	41	360	5
TAP	42	48	0
TAP	42	48	7
TAP	42	144	7
TAP	42	168	6
TAP	42	192	7
TAP	42	216	0
TAP	42	240	1
TAP	42	288	3
TAP	42	288	4
TAP	43	0	1
TAP	43	0	5
TAP	43	48	3
TAP	43	48	7
TAP	43	96	2
TAP	43	96	6
TAP	43	144	0
TAP	43	168	1
TAP	43	192	0
TAP	43	216	7
TAP	43	240	6
TAP	43	288	3
TAP	43	288	4
TAP	44	0	1
TAP	44	24	0
TAP	44	48	1
TAP	44	72	0
TAP	44	96	4
TAP	44	96	5
TAP	44	144	2
TAP	44	168	3
TAP	44	192	2
TAP	44	216	3
TAP	44	240	6
TAP	44	240	7
TAP	44	288	0
TAP	44	288	7
TAP	45	0	7
TAP	45	12	0
TAP	45	24	1
TAP	45	36	2
TAP	45	48	3
TAP	45	60	4
TAP	45	72	5
TAP	45	84	6
TAP	45	96	7
TAP	45	108	0
TAP	45	120	1
TAP	45	132	2
TAP	45	144	3
TAP	45	156	4
TAP	45	168	5
TAP	45	180	6
TAP	45	192	7
TAP	45	204	6
TAP	45	216	5
TAP	45	228	4
TAP	45	240	3
TAP	45	252	2
TAP	45	264	1
TAP	45	276	0
TAP	45	288	7
TAP	45	300	6
TAP	45	312	5
TAP	45	324	4
TAP	45	336	3
TAP	45	348	2
BRK	45	360	1
HLD	46	0	0	384

T_REC_TAP	503
T_REC_BRK	11
T_REC_XTP	0
T_REC_HLD	22
T_REC_XHO	0
T_REC_STR	12
T_REC_BST	0
T_REC_XST	0
T_REC_TTP	0
T_REC_THO	0
T_REC_SLD	12
T_REC_ALL	560
T_NUM_TAP	515
T_NUM_BRK	11
T_NUM_HLD	22
T_NUM_SLD	12
T_NUM_ALL	560
T_JUDGE_TAP	526
T_JUDGE_HLD	92
T_JUDGE_SLD	12
T_JUDGE_ALL	630
TTM_EACHPAIRS	25
TTM_SCR_TAP	257500
TTM_SCR_BRK	28600
TTM_SCR_HLD	22000
TTM_SCR_SLD	18000
TTM_SCR_ALL	326100
TTM_SCR_S	315250
TTM_SCR_SS	325000
TTM_RAT_ACV	10033

