VERSION	0.00.00	1.03.00
FES_MODE	0
BPM_DEF	140.000	140.000	140.000	140.000
MET_DEF	4	4
RESOLUTION	384
CLK_DEF	384
COMPATIBLE_CODE	MA2

BPM	0	0	140.000
MET	0	0	4	4

STR	1	0	5
SI_	1	0	5	96	192	1
HLD	3	0	1	384
STR	4	0	0
SI_	4	0	0	96	48	4
BRK	4	288	0
TAP	5	0	7
TAP	5	48	7
TAP	5	96	6
TAP	5	144	6
TAP	5	192	5
TAP	5	240	5
TAP	5	288	5
TAP	6	0	7
TAP	6	48	7
TAP	6	96	0
TAP	6	144	0
TAP	6	192	1
TAP	6	240	1
TAP	6	288	1
TAP	7	0	0
TAP	7	48	0
TAP	7	96	7
TAP	7	144	7
TAP	7	192	0
TAP	7	240	0
TAP	7	288	0
TAP	8	0	7
TAP	8	48	6
TAP	8	96	5
TAP	8	144	6
TAP	8	192	7
TAP	8	240	0
BRK	8	288	1
TAP	9	0	0
TAP	9	48	0
TAP	9	96	6
TAP	9	144	6
TAP	9	192	2
TAP	9	240	2
TAP	9	288	2
TAP	10	0	5
TAP	10	48	5
TAP	10	96	3
TAP	10	144	3
TAP	10	192	7
TAP	10	240	7
TAP	10	288	7
TAP	11	0	0
TAP	11	48	2
TAP	11	96	4
TAP	11	144	5
TAP	11	192	3
TAP	11	240	1
TAP	11	288	7
STR	12	0	6
SI_	12	0	6	96	48	3
TAP	12	48	6
STR	12	96	0
SI_	12	96	0	96	48	3
TAP	12	144	0
STR	12	192	7
SI_	12	192	7	96	48	3
TAP	12	240	7
TAP	13	0	0
TAP	13	48	1
TAP	13	72	1
HLD	13	144	2	144
TAP	13	288	1
TAP	14	0	0
TAP	14	48	7
TAP	14	72	7
TAP	14	120	6
HLD	14	144	5	48
TAP	14	192	6
TAP	14	240	7
BRK	14	288	7
TAP	15	0	0
TAP	15	48	1
TAP	15	72	1
HLD	15	144	0	144
TAP	15	288	7
TAP	16	0	7
TAP	16	24	6
TAP	16	48	7
TAP	16	96	0
TAP	16	144	1
HLD	16	192	2	72
TAP	16	264	3
TAP	16	336	2
TAP	16	360	1
TAP	17	0	0
TAP	17	48	7
TAP	17	72	7
HLD	17	144	6	240
TAP	17	288	5
TAP	18	0	7
TAP	18	48	0
TAP	18	72	0
TAP	18	120	1
HLD	18	144	2	48
TAP	18	192	1
TAP	18	240	0
BRK	18	288	7
TAP	19	0	5
TAP	19	48	4
TAP	19	72	4
HLD	19	144	3	144
TAP	19	288	2
TAP	20	0	4
TAP	20	24	5
TAP	20	48	4
TAP	20	96	3
TAP	20	144	2
HLD	20	192	1	72
TAP	20	264	0
TAP	20	336	7
TAP	20	360	6
STR	21	0	5
SI_	21	0	5	96	192	1
HLD	22	0	0	384
HLD	23	0	7	384
HLD	24	0	6	384
TAP	25	0	5
TAP	25	72	4
TAP	25	144	4
TAP	25	192	3
TAP	25	240	2
TAP	25	288	3
TAP	25	312	3
TAP	26	0	4
TAP	26	72	5
TAP	26	144	5
TAP	26	192	6
TAP	26	240	7
TAP	26	288	6
TAP	26	312	6
TAP	27	0	5
TAP	27	72	3
TAP	27	144	1
TAP	27	192	2
TAP	27	240	4
TAP	27	288	5
TAP	27	312	5
TAP	28	0	6
TAP	28	24	7
TAP	28	48	6
TAP	28	96	5
TAP	28	144	3
HLD	28	192	1	72
TAP	28	264	0
TAP	28	336	7
TAP	28	360	7
HLD	29	0	6	240
BRK	29	288	0
HLD	30	0	6	48
TAP	30	0	7
TAP	30	48	5
TAP	30	72	4
TAP	30	120	2
HLD	30	168	1	120
HLD	30	288	0	96
STR	31	0	1
SCR	31	0	1	96	48	4
HLD	31	144	5	96
TAP	31	240	3
HLD	31	288	1	96
TAP	32	0	7
TAP	32	48	7
TAP	32	96	6
TAP	32	144	5
TAP	32	168	5
TAP	32	240	7
TAP	32	288	7
TAP	32	336	0
TAP	32	360	1
TAP	33	0	2
TAP	33	48	1
TAP	33	96	0
TAP	33	144	7
TAP	33	168	7
TAP	33	240	6
STR	33	288	6
SI_	33	288	6	96	48	2
HLD	34	0	0	96
TAP	34	96	1
TAP	34	192	7
TAP	34	240	7
STR	34	288	7
SCR	34	288	7	96	48	2
TAP	34	312	6
TAP	35	0	7
TAP	35	48	7
HLD	35	96	0	96
TAP	35	192	1
TAP	35	240	2
TAP	35	288	3
TAP	35	312	3
TAP	36	0	2
TAP	36	96	0
TAP	36	96	1
TAP	36	240	6
TAP	36	288	0
TAP	36	288	7
TAP	37	0	0
TAP	37	0	1
TAP	37	48	2
TAP	37	96	0
TAP	37	96	7
TAP	37	144	6
TAP	37	144	7
TAP	37	240	0
TAP	37	240	1
STR	37	288	2
SI_	37	288	2	96	48	7
STR	37	288	3
SI_	37	288	3	96	48	6
TAP	38	192	6
TAP	38	192	7
TAP	38	240	5
TAP	38	264	4
TAP	38	312	6
HLD	38	360	0	72
STR	39	48	2
SI_	39	48	2	96	48	7
HLD	39	144	6	96
TAP	39	240	5
TAP	39	288	4
TAP	39	336	3
TAP	40	0	1
TAP	40	0	2
TAP	40	48	0
TAP	40	48	1
TAP	40	96	0
TAP	40	96	7
HLD	40	144	6	96
HLD	40	240	0	96
TAP	40	336	1
TAP	41	0	3
TAP	41	48	5
TAP	41	96	7
TAP	41	144	0
TAP	41	192	1
TAP	41	240	2
TAP	41	288	3
TAP	41	336	4
TAP	42	0	2
BRK	42	48	0
BRK	42	48	1
HLD	42	192	7	72
HLD	42	264	0	72
HLD	42	336	1	72
TAP	43	48	2
HLD	43	96	0	96
TAP	43	192	7
STR	43	240	6
SI_	43	240	6	96	48	2
STR	43	336	5
SI_	43	336	5	96	48	0
TAP	44	144	7
TAP	44	192	6
TAP	44	240	5
TAP	44	288	4
HLD	44	336	3	192
TAP	45	48	4
TAP	45	96	5
HLD	45	144	6	192
TAP	45	240	5
TAP	45	288	3
TAP	45	336	1
STR	46	0	0
SI_	46	0	0	96	48	3

T_REC_TAP	204
T_REC_BRK	7
T_REC_XTP	0
T_REC_HLD	31
T_REC_XHO	0
T_REC_STR	15
T_REC_BST	0
T_REC_XST	0
T_REC_TTP	0
T_REC_THO	0
T_REC_SLD	15
T_REC_ALL	272
T_NUM_TAP	219
T_NUM_BRK	7
T_NUM_HLD	31
T_NUM_SLD	15
T_NUM_ALL	272
T_JUDGE_TAP	226
T_JUDGE_HLD	97
T_JUDGE_SLD	15
T_JUDGE_ALL	338
TTM_EACHPAIRS	13
TTM_SCR_TAP	109500
TTM_SCR_BRK	18200
TTM_SCR_HLD	31000
TTM_SCR_SLD	22500
TTM_SCR_ALL	181200
TTM_SCR_S	175100
TTM_SCR_SS	180500
TTM_RAT_ACV	10038

