VERSION	0.00.00	1.03.00
FES_MODE	0
BPM_DEF	140.000	140.000	140.000	140.000
MET_DEF	4	4
RESOLUTION	384
CLK_DEF	384
COMPATIBLE_CODE	MA2

BPM	0	0	140.000
MET	0	0	4	4

HLD	1	0	7	1152
TAP	1	192	6
TAP	2	0	4
TAP	2	192	2
HLD	3	0	0	384
HLD	5	0	2	96
TAP	5	96	4
TAP	5	144	4
TAP	5	240	3
TAP	5	288	4
HLD	6	0	5	96
TAP	6	96	3
TAP	6	144	3
TAP	6	240	4
TAP	6	288	3
STR	7	0	2
SI_	7	0	2	96	48	5
TAP	7	240	3
TAP	7	288	4
TAP	8	0	0
TAP	8	0	7
TAP	8	96	1
TAP	8	96	2
TAP	8	192	4
TAP	8	192	5
BRK	8	288	2
BRK	8	288	3
HLD	9	0	1	96
TAP	9	96	0
TAP	9	144	0
TAP	9	240	2
TAP	9	288	3
HLD	10	0	4	96
TAP	10	96	5
TAP	10	144	5
TAP	10	240	7
TAP	10	288	6
HLD	11	0	1	96
TAP	11	96	0
TAP	11	144	0
TAP	11	240	6
TAP	11	240	7
TAP	11	288	0
TAP	11	288	1
HLD	12	0	0	192
TAP	12	96	2
HLD	12	192	6	96
BRK	12	288	4
TAP	13	0	1
TAP	13	72	1
HLD	13	144	1	144
TAP	14	0	3
TAP	14	72	3
HLD	14	144	3	144
TAP	14	288	0
TAP	15	0	7
TAP	15	72	7
HLD	15	144	7	144
TAP	16	0	6
TAP	16	96	6
TAP	16	192	5
TAP	16	288	5
TAP	17	0	7
TAP	17	72	0
HLD	17	144	1	144
TAP	18	0	7
TAP	18	72	6
HLD	18	144	5	144
TAP	19	0	4
TAP	19	72	5
HLD	19	144	6	144
TAP	20	0	0
TAP	20	96	0
TAP	20	192	2
TAP	20	288	2
HLD	21	0	0	288
HLD	22	0	6	288
HLD	23	0	4	288
HLD	24	0	2	288
TAP	25	0	3
TAP	25	72	5
HLD	25	144	5	144
TAP	26	0	4
TAP	26	72	2
HLD	26	144	2	144
TAP	27	0	5
TAP	27	72	7
HLD	27	144	7	144
STR	28	0	1
SCL	28	0	1	96	192	6
HLD	29	0	5	288
BRK	29	288	4
TAP	30	0	7
TAP	30	48	7
TAP	30	96	0
TAP	30	144	0
TAP	30	192	1
TAP	30	240	2
TAP	30	288	3
TAP	31	0	0
TAP	31	48	7
TAP	31	96	6
TAP	31	144	5
TAP	31	192	4
TAP	31	240	3
HLD	31	288	2	96
STR	32	0	3
SI_	32	0	3	96	96	7
TAP	32	240	6
TAP	32	288	6
STR	33	0	5
SI_	33	0	5	96	96	1
TAP	33	240	2
TAP	33	288	2
TAP	34	0	0
TAP	34	48	0
TAP	34	96	7
TAP	34	144	7
TAP	34	192	6
TAP	34	240	6
TAP	34	288	5
TAP	34	336	5
TAP	35	0	6
TAP	35	48	6
TAP	35	96	7
TAP	35	144	7
TAP	35	192	0
TAP	35	240	0
TAP	35	288	1
TAP	35	336	1
STR	36	0	2
SI_	36	0	2	96	96	7
HLD	37	0	1	192
HLD	37	0	6	192
BRK	37	288	0
BRK	37	288	7
HLD	38	0	6	96
HLD	38	96	4	192
TAP	38	240	3
TAP	38	288	3
HLD	39	0	5	96
HLD	39	96	6	192
TAP	39	240	7
TAP	39	288	7
TAP	40	0	5
TAP	40	48	4
TAP	40	96	3
HLD	40	144	2	240
TAP	41	0	3
TAP	41	48	4
TAP	41	96	5
TAP	41	144	6
TAP	41	192	7
TAP	41	240	0
HLD	41	288	1	96
STR	42	0	2
SI_	42	0	2	96	96	7
HLD	43	1	6	191
HLD	43	192	4	192
HLD	44	0	5	96
HLD	44	96	6	192
TAP	44	240	7
TAP	44	288	7
TAP	45	0	5
TAP	45	48	5
TAP	45	96	4
TAP	45	144	4
TAP	45	192	3
TAP	45	240	3
TAP	45	288	2
TAP	45	336	2
STR	46	0	1
SCR	46	0	1	96	96	4

T_REC_TAP	117
T_REC_BRK	6
T_REC_XTP	0
T_REC_HLD	36
T_REC_XHO	0
T_REC_STR	7
T_REC_BST	0
T_REC_XST	0
T_REC_TTP	0
T_REC_THO	0
T_REC_SLD	7
T_REC_ALL	173
T_NUM_TAP	124
T_NUM_BRK	6
T_NUM_HLD	36
T_NUM_SLD	7
T_NUM_ALL	173
T_JUDGE_TAP	130
T_JUDGE_HLD	148
T_JUDGE_SLD	7
T_JUDGE_ALL	285
TTM_EACHPAIRS	8
TTM_SCR_TAP	62000
TTM_SCR_BRK	15600
TTM_SCR_HLD	36000
TTM_SCR_SLD	10500
TTM_SCR_ALL	124100
TTM_SCR_S	119800
TTM_SCR_SS	123500
TTM_RAT_ACV	10048

