VERSION	0.00.00	1.03.00
FES_MODE	0
BPM_DEF	140.000	140.000	140.000	140.000
MET_DEF	4	4
RESOLUTION	384
CLK_DEF	384
COMPATIBLE_CODE	MA2

BPM	0	0	140.000
MET	0	0	4	4

HLD	3	0	0	288
BRK	4	0	0
TAP	5	96	1
TAP	5	288	1
TAP	6	96	3
TAP	6	288	3
TAP	7	96	0
TAP	7	288	0
TAP	8	96	7
TAP	8	288	7
TAP	9	96	6
TAP	9	288	6
TAP	10	96	4
TAP	10	288	4
TAP	11	96	6
TAP	11	288	6
TAP	12	96	7
TAP	12	288	0
TAP	13	0	1
TAP	13	72	2
HLD	13	144	3	144
TAP	14	0	1
TAP	14	72	0
HLD	14	144	7	144
TAP	15	0	6
TAP	15	72	5
HLD	15	144	4	144
TAP	16	96	5
TAP	16	96	6
TAP	16	288	6
TAP	16	288	7
TAP	17	0	0
TAP	17	72	1
HLD	17	144	2	144
TAP	18	0	0
TAP	18	72	7
HLD	18	144	6	144
TAP	19	0	5
TAP	19	72	4
HLD	19	144	3	144
TAP	20	96	4
TAP	20	96	5
TAP	20	288	6
TAP	20	288	7
HLD	21	0	0	672
HLD	23	0	1	672
TAP	25	0	7
TAP	25	72	6
HLD	25	144	5	144
TAP	26	0	7
TAP	26	72	0
HLD	26	144	1	144
TAP	27	0	0
TAP	27	72	7
HLD	27	144	6	144
HLD	28	0	0	288
BRK	29	0	0
TAP	30	0	0
TAP	30	96	0
TAP	30	96	1
TAP	30	240	0
TAP	30	288	0
TAP	30	288	7
TAP	31	0	6
TAP	31	96	5
TAP	31	96	6
TAP	31	240	7
TAP	31	288	0
TAP	31	288	7
TAP	32	0	1
TAP	32	96	1
TAP	32	96	2
TAP	32	240	0
TAP	32	288	0
TAP	32	288	7
TAP	33	0	6
TAP	33	96	5
TAP	33	96	6
TAP	33	240	7
TAP	33	288	0
TAP	33	288	7
HLD	34	0	1	288
HLD	35	0	2	288
TAP	36	0	7
TAP	36	96	6
TAP	36	240	0
TAP	36	288	0
STR	37	0	7
SI_	37	0	7	96	96	4
BRK	37	288	0
TAP	38	0	1
TAP	38	96	1
TAP	38	96	2
TAP	38	240	0
TAP	38	288	0
TAP	38	288	7
TAP	39	0	6
TAP	39	96	5
TAP	39	96	6
TAP	39	240	6
TAP	39	288	6
TAP	39	288	7
TAP	40	0	0
TAP	40	96	0
TAP	40	96	1
TAP	40	240	0
TAP	40	288	0
TAP	40	288	7
TAP	41	0	6
TAP	41	96	5
TAP	41	96	6
TAP	41	240	4
TAP	41	288	3
TAP	41	288	4
STR	42	0	7
SI_	42	0	7	96	96	3
HLD	43	96	1	192
TAP	44	96	1
TAP	44	288	2
TAP	45	96	1
STR	45	288	0
SI_	45	288	0	96	96	4

T_REC_TAP	97
T_REC_BRK	3
T_REC_XTP	0
T_REC_HLD	16
T_REC_XHO	0
T_REC_STR	3
T_REC_BST	0
T_REC_XST	0
T_REC_TTP	0
T_REC_THO	0
T_REC_SLD	3
T_REC_ALL	122
T_NUM_TAP	100
T_NUM_BRK	3
T_NUM_HLD	16
T_NUM_SLD	3
T_NUM_ALL	122
T_JUDGE_TAP	103
T_JUDGE_HLD	83
T_JUDGE_SLD	3
T_JUDGE_ALL	189
TTM_EACHPAIRS	20
TTM_SCR_TAP	50000
TTM_SCR_BRK	7800
TTM_SCR_HLD	16000
TTM_SCR_SLD	4500
TTM_SCR_ALL	78300
TTM_SCR_S	75700
TTM_SCR_SS	78000
TTM_RAT_ACV	10038

