VERSION	0.00.00	1.03.00
FES_MODE	0
BPM_DEF	178.000	178.000	178.000	178.000
MET_DEF	4	4
RESOLUTION	384
CLK_DEF	384
COMPATIBLE_CODE	MA2

BPM	0	0	178.000
MET	0	0	4	4

STR	2	0	0
SI_	2	0	0	96	288	4
TAP	2	96	1
TAP	2	288	6
STR	3	0	7
SI_	3	0	7	96	288	3
TAP	3	96	2
TAP	3	288	5
STR	4	0	1
SI_	4	0	1	96	288	5
TAP	4	96	2
TAP	4	288	6
STR	5	0	6
SI_	5	0	6	96	288	3
TAP	5	96	4
TAP	5	288	2
TAP	6	0	1
TAP	6	48	1
TAP	6	144	0
TAP	6	192	2
TAP	6	240	4
TAP	6	288	3
TAP	6	336	1
TAP	7	0	6
TAP	7	48	6
TAP	7	144	7
TAP	7	192	5
TAP	7	240	3
TAP	7	288	4
TAP	7	336	6
TAP	8	0	0
TAP	8	48	7
TAP	8	144	1
TAP	8	192	2
TAP	8	240	3
TAP	8	288	4
TAP	8	336	5
STR	9	0	0
SI_	9	0	0	96	48	4
STR	9	96	6
SI_	9	96	6	96	48	2
STR	9	192	1
SI_	9	192	1	96	48	5
HLD	10	0	0	288
TAP	10	96	2
TAP	10	144	1
TAP	10	240	4
TAP	10	288	6
HLD	11	0	5	288
TAP	11	96	6
TAP	11	144	4
TAP	11	240	7
TAP	11	288	0
TAP	11	336	1
HLD	12	0	4	288
TAP	12	96	3
TAP	12	144	2
TAP	12	240	6
TAP	12	288	0
HLD	13	0	1	288
TAP	13	96	7
TAP	13	144	2
TAP	13	240	5
TAP	13	288	3
TAP	13	336	4
HLD	14	0	5	288
TAP	14	96	4
TAP	14	144	6
TAP	14	240	7
TAP	14	288	4
HLD	15	0	6	288
TAP	15	96	4
TAP	15	144	5
TAP	15	240	7
TAP	15	288	4
TAP	15	336	5
HLD	16	0	2	288
TAP	16	96	0
TAP	16	144	6
TAP	16	240	7
TAP	16	288	5
HLD	17	0	3	288
TAP	17	96	2
TAP	17	144	5
TAP	17	240	2
TAP	17	288	4
HLD	18	0	2	192
TAP	18	48	3
TAP	18	96	4
TAP	18	144	5
HLD	18	192	5	192
TAP	18	240	4
TAP	18	288	3
TAP	18	336	2
HLD	19	0	2	192
TAP	19	48	1
TAP	19	96	0
TAP	19	144	7
HLD	19	192	4	96
HLD	19	288	0	96
HLD	20	0	6	192
TAP	20	48	5
TAP	20	96	4
TAP	20	144	3
HLD	20	192	3	193
TAP	20	240	4
TAP	20	288	5
TAP	20	336	6
HLD	21	0	6	192
TAP	21	48	7
TAP	21	96	0
TAP	21	144	1
HLD	21	192	3	96
HLD	21	288	7	96
HLD	22	0	1	192
TAP	22	48	0
TAP	22	96	7
TAP	22	144	6
HLD	22	192	6	192
TAP	22	240	7
TAP	22	288	0
TAP	22	336	1
HLD	23	0	1	192
TAP	23	48	0
TAP	23	96	7
TAP	23	144	6
HLD	23	192	4	96
HLD	23	288	3	96
HLD	24	0	5	192
TAP	24	48	4
TAP	24	96	3
TAP	24	144	2
HLD	24	192	2	192
TAP	24	240	3
TAP	24	288	4
TAP	24	336	5
HLD	25	0	5	192
TAP	25	48	6
TAP	25	96	7
TAP	25	144	0
TAP	25	192	1
TAP	25	240	2
TAP	25	288	3
TAP	25	336	4
STR	26	0	1
SCL	26	0	1	96	192	6
HLD	26	0	5	288
HLD	27	0	1	288
STR	27	0	6
SI_	27	0	6	96	192	2
STR	28	0	2
SCR	28	0	2	96	192	5
HLD	28	0	6	288
HLD	29	0	2	288
STR	29	0	5
SI_	29	0	5	96	192	1
STR	30	0	1
SI_	30	0	1	96	24	4
STR	30	0	6
SI_	30	0	6	96	24	3
TAP	30	48	1
TAP	30	48	6
TAP	30	144	2
TAP	30	192	5
TAP	30	240	3
TAP	30	288	4
TAP	30	336	3
STR	31	0	0
SI_	31	0	0	96	24	3
STR	31	0	7
SI_	31	0	7	96	24	4
TAP	31	48	0
TAP	31	48	7
TAP	31	144	1
TAP	31	192	6
TAP	31	240	0
TAP	31	288	7
TAP	31	336	0
TAP	31	336	7
STR	32	0	1
SI_	32	0	1	96	24	4
STR	32	0	6
SI_	32	0	6	96	24	3
TAP	32	48	1
TAP	32	48	6
TAP	32	144	2
TAP	32	192	5
TAP	32	240	3
TAP	32	288	4
TAP	32	336	3
STR	33	0	0
SI_	33	0	0	96	24	3
STR	33	0	7
SI_	33	0	7	96	24	4
TAP	33	48	0
TAP	33	48	7
TAP	33	144	1
TAP	33	192	6
TAP	33	240	0
TAP	33	288	7
TAP	33	336	0
TAP	33	336	7
STR	34	0	1
SCL	34	0	1	96	192	6
STR	34	0	5
SCL	34	0	5	96	192	2
STR	35	0	2
SCR	35	0	2	96	192	5
STR	35	0	6
SCR	35	0	6	96	192	1
TAP	36	0	0
TAP	36	48	7
STR	36	144	0
SI_	36	144	0	96	48	5
STR	36	192	6
SI_	36	192	6	96	48	3
TAP	37	0	3
TAP	37	48	4
STR	37	144	0
SCR	37	144	0	96	48	3
STR	37	192	4
SCR	37	192	4	96	48	7
TAP	38	0	0
TAP	38	0	1
TAP	38	96	1
TAP	38	96	2
TAP	38	192	2
TAP	38	192	3
TAP	38	288	3
TAP	38	288	4
TAP	39	0	4
TAP	39	0	5
TAP	39	96	5
TAP	39	96	6
TAP	39	192	6
TAP	39	192	7
TAP	39	288	0
TAP	39	288	7
TAP	40	0	7
TAP	40	48	6
TAP	40	96	5
TAP	40	144	4
TAP	40	192	3
TAP	40	240	2
TAP	40	288	1
TAP	40	336	0
TAP	41	0	0
TAP	41	24	1
TAP	41	48	2
TAP	41	72	3
TAP	41	96	4
TAP	41	120	5
TAP	41	144	6
TAP	41	168	7
TAP	41	192	0
TAP	41	216	7
TAP	41	240	6
TAP	41	264	5
TAP	41	288	4
TAP	41	312	3
BRK	41	336	2
HLD	42	0	1	96
TAP	42	96	0
STR	42	192	1
SI_	42	192	1	96	48	6
STR	42	240	5
SI_	42	240	5	96	48	2
TAP	43	48	5
TAP	43	96	4
STR	43	144	0
SCL	43	144	0	96	48	5
STR	43	144	3
SCL	43	144	3	96	48	0
TAP	44	0	7
TAP	44	96	5
TAP	44	144	6
TAP	44	192	4
TAP	44	240	2
TAP	44	288	3
HLD	44	336	1	144
STR	45	96	4
SCR	45	96	4	96	48	7
TAP	45	192	0
TAP	45	216	1
TAP	45	240	2
TAP	45	264	3
BRK	45	288	4
HLD	46	0	6	192
STR	46	192	0
SCL	46	192	0	96	48	5
STR	46	240	5
SCL	46	240	5	96	48	2
HLD	47	48	3	96
HLD	47	144	4	96
HLD	47	240	5	96
STR	48	0	6
SI_	48	0	6	96	48	1
STR	48	48	2
SI_	48	48	2	96	48	5
STR	48	192	7
SI_	48	192	7	96	48	4
STR	48	240	3
SI_	48	240	3	96	48	0
TAP	49	96	7
TAP	49	192	4
TAP	49	216	5
TAP	49	240	6
BRK	49	264	7
TAP	49	288	3
TAP	49	312	2
TAP	49	336	1
BRK	49	360	0
HLD	50	0	1	96
TAP	50	96	0
STR	50	192	4
SI_	50	192	4	96	48	1
STR	50	240	3
SI_	50	240	3	96	48	6
TAP	51	48	0
TAP	51	96	7
STR	51	144	6
SCR	51	144	6	96	48	1
HLD	52	0	6	192
TAP	52	96	7
TAP	52	144	0
HLD	52	192	1	144
TAP	52	240	2
TAP	52	288	3
HLD	52	336	3	144
TAP	53	96	4
TAP	53	192	3
TAP	53	216	4
TAP	53	240	3
TAP	53	264	4
BRK	53	288	3
TAP	53	336	5
HLD	54	0	2	96
TAP	54	96	3
STR	54	192	7
SI_	54	192	7	96	48	3
STR	54	240	1
SI_	54	240	1	96	48	5
HLD	55	48	3	96
HLD	55	144	2	96
HLD	55	240	1	96
STR	56	0	1
SI_	56	0	1	96	48	6
STR	56	48	5
SI_	56	48	5	96	48	2
STR	56	192	0
SI_	56	192	0	96	48	3
STR	56	240	4
SI_	56	240	4	96	240	7

T_REC_TAP	210
T_REC_BRK	5
T_REC_XTP	0
T_REC_HLD	44
T_REC_XHO	0
T_REC_STR	47
T_REC_BST	0
T_REC_XST	0
T_REC_TTP	0
T_REC_THO	0
T_REC_SLD	47
T_REC_ALL	353
T_NUM_TAP	257
T_NUM_BRK	5
T_NUM_HLD	44
T_NUM_SLD	47
T_NUM_ALL	353
T_JUDGE_TAP	262
T_JUDGE_HLD	168
T_JUDGE_SLD	47
T_JUDGE_ALL	477
TTM_EACHPAIRS	25
TTM_SCR_TAP	128500
TTM_SCR_BRK	13000
TTM_SCR_HLD	44000
TTM_SCR_SLD	70500
TTM_SCR_ALL	256000
TTM_SCR_S	247850
TTM_SCR_SS	255500
TTM_RAT_ACV	10019

