VERSION	0.00.00	1.03.00
FES_MODE	0
BPM_DEF	178.000	178.000	178.000	178.000
MET_DEF	4	4
RESOLUTION	384
CLK_DEF	384
COMPATIBLE_CODE	MA2

BPM	0	0	178.000
MET	0	0	4	4

HLD	6	0	2	384
TAP	6	288	3
HLD	7	0	4	384
TAP	7	288	3
HLD	8	0	0	384
STR	8	288	7
SI_	8	288	7	96	192	4
BRK	9	336	0
HLD	10	0	0	288
TAP	10	96	7
TAP	10	288	6
HLD	10	336	6	336
TAP	11	96	5
TAP	11	288	4
HLD	12	0	2	288
TAP	12	0	4
TAP	12	96	1
TAP	12	288	7
HLD	12	336	7	240
TAP	13	96	6
TAP	13	288	0
TAP	13	288	4
HLD	14	0	1	288
TAP	14	96	2
TAP	14	288	4
HLD	14	336	4	336
TAP	15	96	5
TAP	15	288	7
HLD	16	0	0	288
TAP	16	0	1
TAP	16	96	2
TAP	16	288	3
HLD	16	336	3	336
TAP	17	96	4
TAP	17	288	5
HLD	18	0	0	144
TAP	18	0	7
TAP	18	96	1
TAP	18	144	1
TAP	18	240	2
TAP	18	288	3
TAP	19	0	3
HLD	19	0	4	144
TAP	19	96	6
TAP	19	144	6
TAP	19	240	7
TAP	19	288	0
TAP	20	0	0
HLD	20	0	1	144
TAP	20	96	2
TAP	20	144	2
TAP	20	240	3
TAP	20	288	4
HLD	21	0	4	144
TAP	21	0	5
TAP	21	96	3
TAP	21	144	3
TAP	21	240	2
TAP	21	288	1
TAP	22	0	7
TAP	22	48	0
TAP	22	96	1
TAP	22	144	2
TAP	22	192	3
TAP	22	240	4
TAP	22	288	5
TAP	23	0	6
TAP	23	48	5
TAP	23	96	4
TAP	23	144	3
TAP	23	192	2
TAP	23	240	1
TAP	23	288	0
TAP	24	0	1
TAP	24	48	2
TAP	24	96	3
TAP	24	144	4
TAP	24	192	1
TAP	24	240	0
TAP	24	288	7
TAP	24	336	6
TAP	25	0	0
TAP	25	48	1
TAP	25	96	2
TAP	25	144	3
TAP	25	192	0
TAP	25	240	7
TAP	25	288	6
TAP	25	336	5
HLD	26	0	4	672
HLD	28	0	2	288
HLD	29	0	0	288
STR	30	0	7
SCR	30	0	7	96	192	2
TAP	30	96	4
TAP	30	288	5
STR	31	0	6
SCL	31	0	6	96	192	3
TAP	31	96	2
TAP	31	288	1
HLD	32	0	0	384
TAP	33	0	7
TAP	33	96	3
TAP	33	96	6
TAP	33	192	2
TAP	33	192	5
TAP	33	288	1
TAP	33	288	4
HLD	34	0	0	144
TAP	34	96	7
TAP	34	144	7
TAP	34	240	6
TAP	34	288	5
HLD	35	0	6	144
TAP	35	96	7
TAP	35	144	7
TAP	35	240	0
TAP	35	288	1
HLD	36	0	2	144
TAP	36	96	3
TAP	36	144	3
TAP	36	240	4
TAP	36	288	5
HLD	37	0	4	144
TAP	37	96	3
TAP	37	144	3
TAP	37	240	2
TAP	37	288	1
HLD	38	0	5	144
TAP	38	0	7
TAP	38	96	6
TAP	38	144	6
TAP	38	240	0
TAP	38	288	1
HLD	39	0	2	144
TAP	39	0	4
TAP	39	96	3
TAP	39	144	3
TAP	39	240	4
TAP	39	288	5
HLD	40	0	7	96
HLD	40	96	5	96
HLD	40	192	3	96
TAP	40	288	1
TAP	41	0	0
TAP	41	0	6
TAP	41	96	5
TAP	41	96	7
STR	41	192	3
SI_	41	192	3	96	48	0
STR	41	192	4
SI_	41	192	4	96	48	7
BRK	42	0	1
BRK	42	0	6
TAP	42	96	2
TAP	42	192	1
TAP	42	192	3
TAP	42	288	4
HLD	42	336	4	96
TAP	43	48	5
HLD	43	144	1	96
TAP	43	144	7
HLD	43	240	2	96
TAP	43	336	3
STR	44	0	3
SI_	44	0	3	96	96	7
TAP	44	96	0
TAP	44	144	0
TAP	44	240	2
TAP	44	288	2
STR	45	0	1
SI_	45	0	1	96	96	5
TAP	45	96	4
TAP	45	144	4
TAP	45	240	2
TAP	45	288	2
BRK	46	0	2
BRK	46	0	5
TAP	46	96	1
TAP	46	192	0
TAP	46	192	1
TAP	46	288	2
HLD	46	336	2	96
TAP	47	48	3
TAP	47	144	4
HLD	47	144	6	96
HLD	47	240	0	96
TAP	47	336	1
TAP	48	0	1
TAP	48	48	0
TAP	48	96	7
TAP	48	144	6
TAP	48	192	7
TAP	48	240	0
TAP	48	288	1
HLD	48	336	2	336
BRK	50	0	1
BRK	50	0	6
TAP	50	96	5
TAP	50	192	4
TAP	50	192	6
TAP	50	288	3
HLD	50	336	3	96
TAP	51	48	2
TAP	51	144	0
HLD	51	144	6	96
HLD	51	240	5	96
TAP	51	336	4
STR	52	0	4
SI_	52	0	4	96	96	0
TAP	52	96	7
TAP	52	144	7
TAP	52	240	5
TAP	52	288	5
STR	53	0	6
SI_	53	0	6	96	96	2
TAP	53	96	3
TAP	53	144	3
TAP	53	240	5
TAP	53	288	5
BRK	54	0	2
BRK	54	0	5
TAP	54	96	6
TAP	54	192	6
TAP	54	192	7
TAP	54	288	5
HLD	54	336	5	96
TAP	55	48	4
HLD	55	144	1	96
TAP	55	144	3
HLD	55	240	7	96
TAP	55	336	6
TAP	56	0	6
TAP	56	48	7
TAP	56	96	0
TAP	56	144	1
TAP	56	192	0
STR	56	240	7
SCR	56	240	7	96	240	2
TAP	56	288	6
HLD	56	336	7	384

T_REC_TAP	170
T_REC_BRK	9
T_REC_XTP	0
T_REC_HLD	42
T_REC_XHO	0
T_REC_STR	10
T_REC_BST	0
T_REC_XST	0
T_REC_TTP	0
T_REC_THO	0
T_REC_SLD	10
T_REC_ALL	241
T_NUM_TAP	180
T_NUM_BRK	9
T_NUM_HLD	42
T_NUM_SLD	10
T_NUM_ALL	241
T_JUDGE_TAP	189
T_JUDGE_HLD	183
T_JUDGE_SLD	10
T_JUDGE_ALL	382
TTM_EACHPAIRS	27
TTM_SCR_TAP	90000
TTM_SCR_BRK	23400
TTM_SCR_HLD	42000
TTM_SCR_SLD	15000
TTM_SCR_ALL	170400
TTM_SCR_S	164450
TTM_SCR_SS	169500
TTM_RAT_ACV	10053

