VERSION	0.00.00	1.03.00
FES_MODE	0
BPM_DEF	178.000	178.000	178.000	178.000
MET_DEF	4	4
RESOLUTION	384
CLK_DEF	384
COMPATIBLE_CODE	MA2

BPM	0	0	178.000
MET	0	0	4	4

TAP	2	0	2
TAP	3	0	3
TAP	4	0	4
TAP	5	0	5
TAP	6	0	6
TAP	6	96	6
TAP	6	192	5
TAP	6	288	5
TAP	7	0	4
TAP	7	96	4
TAP	7	192	3
TAP	7	288	3
TAP	8	0	2
TAP	8	96	2
TAP	8	192	1
TAP	8	288	1
BRK	9	0	0
TAP	10	0	7
HLD	10	96	6	144
TAP	10	240	5
TAP	10	288	5
TAP	11	0	7
HLD	11	96	0	144
TAP	11	240	1
TAP	11	288	1
TAP	12	0	7
HLD	12	96	6	144
TAP	12	240	5
TAP	12	288	5
TAP	13	0	3
HLD	13	96	1	144
TAP	13	240	2
TAP	13	288	2
TAP	14	0	3
HLD	14	96	4	144
TAP	14	240	5
TAP	14	288	5
TAP	15	0	4
HLD	15	96	3	144
TAP	15	240	2
TAP	15	288	2
TAP	16	0	3
HLD	16	96	4	144
TAP	16	240	5
TAP	16	288	5
TAP	17	0	3
HLD	17	96	1	144
TAP	17	240	2
TAP	17	288	2
TAP	18	0	1
TAP	18	0	2
TAP	18	96	0
TAP	18	144	0
TAP	18	240	7
TAP	18	288	7
TAP	19	0	5
TAP	19	0	6
TAP	19	96	4
TAP	19	144	4
TAP	19	240	3
TAP	19	288	3
TAP	20	0	4
TAP	20	0	5
TAP	20	96	6
TAP	20	144	6
TAP	20	240	7
TAP	20	288	7
TAP	21	0	0
TAP	21	0	1
TAP	21	96	2
TAP	21	144	2
TAP	21	240	3
TAP	21	288	3
TAP	22	0	0
TAP	22	0	7
TAP	22	96	6
TAP	22	144	6
TAP	22	240	4
TAP	22	288	4
TAP	23	0	1
TAP	23	0	2
TAP	23	96	3
TAP	23	144	3
TAP	23	240	5
TAP	23	288	5
TAP	24	0	0
TAP	24	0	7
TAP	24	96	6
TAP	24	144	6
TAP	24	240	4
TAP	24	288	4
TAP	25	0	1
TAP	25	0	2
TAP	25	96	3
TAP	25	144	3
TAP	25	240	5
TAP	25	288	5
HLD	26	0	7	768
TAP	29	0	1
TAP	29	96	2
TAP	29	96	3
TAP	29	192	2
TAP	29	192	3
TAP	29	288	2
TAP	29	288	3
TAP	30	96	1
TAP	30	288	1
TAP	31	96	0
TAP	31	288	0
TAP	32	96	7
TAP	32	288	7
TAP	33	0	6
TAP	33	96	5
TAP	33	96	6
TAP	33	192	6
TAP	33	192	7
TAP	33	288	0
TAP	33	288	7
HLD	34	0	7	96
TAP	34	96	5
TAP	34	240	4
TAP	34	288	4
HLD	35	0	5	96
TAP	35	96	6
TAP	35	240	0
TAP	35	288	0
HLD	36	0	1	96
TAP	36	96	3
TAP	36	240	4
TAP	36	288	4
HLD	37	0	3	96
TAP	37	96	1
TAP	37	240	0
TAP	37	288	0
STR	38	0	7
SI_	38	0	7	96	96	3
STR	39	0	0
SI_	39	0	0	96	96	4
TAP	40	0	5
TAP	40	96	4
TAP	40	192	3
TAP	40	288	2
TAP	41	0	3
TAP	41	96	5
TAP	41	192	7
BRK	41	288	1
TAP	42	0	1
TAP	42	96	0
TAP	42	192	0
TAP	42	192	7
TAP	42	288	1
TAP	42	336	1
TAP	43	48	2
TAP	43	144	4
HLD	43	240	6	144
TAP	44	0	5
TAP	44	96	3
TAP	44	144	3
TAP	44	240	1
TAP	44	288	1
TAP	45	0	0
TAP	45	96	2
TAP	45	144	2
TAP	45	240	4
TAP	45	288	4
TAP	46	0	5
TAP	46	96	4
TAP	46	192	2
TAP	46	192	3
TAP	46	288	4
TAP	46	336	4
TAP	47	48	6
TAP	47	144	0
HLD	47	240	2	144
STR	48	0	3
SI_	48	0	3	96	96	7
STR	49	0	6
SI_	49	0	6	96	96	2
TAP	50	0	2
TAP	50	96	1
TAP	50	192	0
TAP	50	192	1
TAP	50	288	2
TAP	50	336	2
TAP	51	48	4
TAP	51	144	6
HLD	51	240	0	144
TAP	52	0	1
TAP	52	96	7
TAP	52	144	7
TAP	52	240	5
TAP	52	288	5
TAP	53	0	6
TAP	53	96	0
TAP	53	144	0
TAP	53	240	2
TAP	53	288	2
TAP	54	0	1
TAP	54	96	0
TAP	54	192	0
TAP	54	192	7
TAP	54	288	1
TAP	54	336	1
TAP	55	48	3
TAP	55	144	5
HLD	55	240	7	144
STR	56	0	0
SI_	56	0	0	96	96	4
HLD	56	336	5	240
TAP	57	192	2
TAP	57	336	0
TAP	57	336	7

T_REC_TAP	182
T_REC_BRK	2
T_REC_XTP	0
T_REC_HLD	18
T_REC_XHO	0
T_REC_STR	5
T_REC_BST	0
T_REC_XST	0
T_REC_TTP	0
T_REC_THO	0
T_REC_SLD	5
T_REC_ALL	212
T_NUM_TAP	187
T_NUM_BRK	2
T_NUM_HLD	18
T_NUM_SLD	5
T_NUM_ALL	212
T_JUDGE_TAP	189
T_JUDGE_HLD	65
T_JUDGE_SLD	5
T_JUDGE_ALL	259
TTM_EACHPAIRS	19
TTM_SCR_TAP	93500
TTM_SCR_BRK	5200
TTM_SCR_HLD	18000
TTM_SCR_SLD	7500
TTM_SCR_ALL	124200
TTM_SCR_S	120300
TTM_SCR_SS	124000
TTM_RAT_ACV	10016

