VERSION	0.00.00	1.03.00
FES_MODE	0
BPM_DEF	178.000	178.000	178.000	178.000
MET_DEF	4	4
RESOLUTION	384
CLK_DEF	384
COMPATIBLE_CODE	MA2

BPM	0	0	178.000
MET	0	0	4	4

TAP	2	96	1
TAP	2	288	1
TAP	3	96	0
TAP	3	288	0
TAP	4	96	7
TAP	4	288	7
TAP	5	96	6
TAP	5	288	6
TAP	6	96	7
TAP	6	192	7
TAP	6	288	7
TAP	7	96	0
TAP	7	192	0
TAP	7	288	0
TAP	8	96	7
TAP	8	192	0
TAP	8	288	7
STR	9	0	0
SI_	9	0	0	96	192	4
TAP	10	96	5
TAP	10	288	4
TAP	11	96	2
TAP	11	288	3
TAP	12	96	1
TAP	12	288	2
TAP	13	96	4
TAP	13	192	4
TAP	13	288	3
TAP	14	96	6
TAP	14	288	5
TAP	15	96	3
TAP	15	288	4
TAP	16	96	1
TAP	16	288	2
TAP	17	96	0
TAP	17	192	0
TAP	17	288	1
TAP	18	96	7
TAP	18	288	7
TAP	19	96	5
TAP	19	288	5
TAP	20	96	6
TAP	20	288	6
TAP	21	96	7
TAP	21	192	7
TAP	21	288	7
TAP	22	96	0
TAP	22	288	0
TAP	23	96	2
TAP	23	288	2
TAP	24	96	1
TAP	24	288	1
TAP	25	96	0
TAP	25	192	0
TAP	25	288	0
HLD	26	0	7	768
TAP	29	96	1
TAP	29	192	1
TAP	29	288	1
HLD	30	0	7	672
TAP	33	96	6
TAP	33	96	7
TAP	33	192	6
TAP	33	192	7
TAP	33	288	6
TAP	33	288	7
TAP	34	96	5
TAP	34	288	4
STR	35	96	3
SI_	35	96	3	96	480	7
TAP	38	96	0
TAP	38	288	1
TAP	39	96	2
TAP	39	288	3
TAP	40	0	2
TAP	40	96	2
TAP	40	192	1
TAP	40	288	1
TAP	41	0	0
TAP	41	96	0
TAP	41	192	7
BRK	41	288	7
TAP	42	96	0
TAP	42	192	0
TAP	42	288	1
TAP	43	96	0
TAP	43	192	0
TAP	43	288	7
HLD	44	0	6	288
HLD	45	0	5	288
TAP	46	96	6
TAP	46	192	6
TAP	46	288	7
TAP	47	96	0
TAP	47	192	0
TAP	47	288	1
HLD	48	0	2	288
HLD	49	0	3	288
TAP	50	96	2
TAP	50	192	1
TAP	50	288	1
TAP	51	96	2
TAP	51	192	3
TAP	51	288	3
HLD	52	0	4	288
HLD	53	0	5	288
TAP	54	96	4
TAP	54	192	3
TAP	54	288	2
TAP	55	96	3
TAP	55	192	4
TAP	55	288	5
TAP	56	0	3
TAP	56	96	2
TAP	56	192	1
TAP	56	288	0
HLD	56	336	0	144
HLD	57	192	7	144

T_REC_TAP	103
T_REC_BRK	1
T_REC_XTP	0
T_REC_HLD	10
T_REC_XHO	0
T_REC_STR	2
T_REC_BST	0
T_REC_XST	0
T_REC_TTP	0
T_REC_THO	0
T_REC_SLD	2
T_REC_ALL	118
T_NUM_TAP	105
T_NUM_BRK	1
T_NUM_HLD	10
T_NUM_SLD	2
T_NUM_ALL	118
T_JUDGE_TAP	106
T_JUDGE_HLD	72
T_JUDGE_SLD	2
T_JUDGE_ALL	180
TTM_EACHPAIRS	3
TTM_SCR_TAP	52500
TTM_SCR_BRK	2600
TTM_SCR_HLD	10000
TTM_SCR_SLD	3000
TTM_SCR_ALL	68100
TTM_SCR_S	66000
TTM_SCR_SS	68000
TTM_RAT_ACV	10014

