VERSION	0.00.00	1.03.00
FES_MODE	0
BPM_DEF	180.000	180.000	180.000	180.000
MET_DEF	4	4
RESOLUTION	384
CLK_DEF	384
COMPATIBLE_CODE	MA2

BPM	0	0	180.000
MET	0	0	4	4

HLD	1	0	1	384
STR	1	288	0
SCL	1	288	0	96	192	5
HLD	2	192	4	192
HLD	3	0	2	384
STR	3	288	3
SCR	3	288	3	96	192	6
HLD	5	0	5	384
STR	5	288	4
SCL	5	288	4	96	192	1
HLD	6	192	0	191
HLD	7	0	7	288
TAP	7	288	6
TAP	7	336	5
TAP	8	0	4
TAP	8	96	0
TAP	8	144	0
TAP	8	240	1
TAP	8	288	1
TAP	9	0	0
TAP	9	96	7
TAP	9	192	6
TAP	9	288	5
TAP	10	0	4
TAP	10	96	3
TAP	10	192	2
TAP	10	288	1
TAP	11	0	0
TAP	11	96	1
TAP	11	192	2
TAP	11	288	3
TAP	12	0	4
TAP	12	96	5
TAP	12	192	6
TAP	12	288	7
TAP	13	0	6
TAP	13	48	5
TAP	13	96	4
TAP	13	144	3
TAP	13	192	2
TAP	13	240	1
TAP	13	288	0
TAP	13	336	7
TAP	14	0	0
TAP	14	48	1
TAP	14	96	2
TAP	14	144	3
TAP	14	192	4
TAP	14	240	5
TAP	14	288	6
TAP	14	336	7
TAP	15	0	6
TAP	15	24	5
TAP	15	48	4
TAP	15	72	3
TAP	15	96	2
TAP	15	120	1
TAP	15	144	0
TAP	15	168	7
TAP	15	192	6
TAP	15	216	5
TAP	15	240	4
TAP	15	264	3
TAP	15	288	2
TAP	15	312	1
TAP	15	336	0
TAP	15	360	7
TAP	16	0	6
TAP	16	24	5
TAP	16	48	4
TAP	16	72	3
TAP	16	96	2
TAP	16	120	1
TAP	16	144	0
TAP	16	168	7
TAP	16	192	6
TAP	16	216	5
TAP	16	240	4
TAP	16	264	3
TAP	16	288	2
TAP	16	312	1
TAP	16	336	0
TAP	16	360	7
BRK	17	0	1
BRK	17	0	6
TAP	18	0	0
TAP	18	0	7
TAP	18	48	6
TAP	18	96	2
TAP	18	144	4
TAP	18	192	0
TAP	18	240	7
TAP	18	288	3
TAP	18	336	5
TAP	19	0	3
TAP	19	0	4
TAP	19	48	2
TAP	19	96	1
STR	19	144	0
SI_	19	144	0	96	48	3
TAP	20	0	2
TAP	20	0	5
TAP	20	48	1
TAP	20	96	7
TAP	20	144	3
TAP	20	192	4
TAP	20	240	0
TAP	20	288	6
TAP	20	336	1
TAP	21	0	0
TAP	21	0	7
TAP	21	48	6
TAP	21	96	5
TAP	21	144	4
TAP	21	240	5
HLD	21	288	6	96
TAP	22	0	0
TAP	22	48	1
TAP	22	96	0
TAP	22	144	2
TAP	22	192	1
TAP	22	240	3
TAP	22	288	2
TAP	22	336	4
TAP	23	0	3
TAP	23	48	2
TAP	23	96	1
TAP	23	144	0
TAP	23	192	7
HLD	23	240	6	96
TAP	24	0	7
TAP	24	48	0
TAP	24	96	1
TAP	24	144	2
TAP	24	192	3
TAP	24	240	4
TAP	24	288	5
TAP	24	336	4
TAP	25	0	2
TAP	25	0	3
TAP	25	48	0
TAP	25	48	1
TAP	25	144	6
TAP	25	144	7
TAP	25	240	0
TAP	25	240	1
TAP	25	288	2
TAP	25	288	3
TAP	26	0	1
TAP	26	0	7
TAP	26	48	0
TAP	26	96	5
TAP	26	96	6
TAP	26	144	4
TAP	26	192	1
TAP	26	192	3
TAP	26	240	2
TAP	26	288	4
TAP	26	288	5
TAP	26	336	6
TAP	27	0	0
TAP	27	0	7
TAP	27	48	1
TAP	27	96	2
STR	27	144	3
SCL	27	144	3	96	48	0
TAP	28	0	4
TAP	28	0	6
TAP	28	48	5
TAP	28	96	2
TAP	28	96	3
TAP	28	144	1
TAP	28	192	0
TAP	28	192	7
TAP	28	240	6
TAP	28	288	3
TAP	28	288	5
TAP	28	336	4
TAP	29	0	6
TAP	29	0	7
TAP	29	48	0
TAP	29	96	1
STR	29	144	2
SI_	29	144	2	96	48	7
BRK	29	288	0
TAP	30	0	0
TAP	30	0	2
TAP	30	48	1
TAP	30	96	3
TAP	30	96	4
TAP	30	144	5
TAP	30	192	0
TAP	30	192	6
TAP	30	240	7
TAP	30	288	4
TAP	30	288	5
TAP	30	336	3
TAP	31	0	1
TAP	31	0	2
TAP	31	48	0
TAP	31	96	7
STR	31	144	6
SCR	31	144	6	96	48	1
TAP	32	0	0
TAP	32	48	7
TAP	32	96	6
TAP	32	144	5
TAP	32	192	4
TAP	32	240	3
TAP	32	288	2
TAP	32	336	1
TAP	33	0	0
TAP	33	0	7
TAP	33	48	5
TAP	33	48	6
TAP	33	96	3
TAP	33	96	4
TAP	33	144	1
TAP	33	144	2
TAP	33	240	3
TAP	33	240	5
TAP	33	288	4
TAP	33	288	6
STR	34	0	0
SCL	34	0	0	96	192	5
TAP	34	96	1
TAP	34	192	2
TAP	34	288	3
STR	35	0	4
SCL	35	0	4	96	192	1
TAP	35	96	5
TAP	35	192	6
TAP	35	288	7
STR	36	0	6
SCL	36	0	6	96	192	3
TAP	36	96	7
TAP	36	192	0
TAP	36	288	1
STR	37	0	2
SCL	37	0	2	96	192	7
TAP	37	96	3
TAP	37	192	4
TAP	37	288	5
TAP	38	0	6
TAP	38	48	5
TAP	38	96	4
TAP	38	144	3
TAP	38	192	2
TAP	38	240	1
TAP	38	288	0
TAP	38	336	7
TAP	39	0	0
TAP	39	48	1
TAP	39	96	2
TAP	39	144	3
TAP	39	192	4
TAP	39	240	5
TAP	39	288	6
TAP	39	336	7
TAP	40	0	6
TAP	40	24	5
TAP	40	48	4
TAP	40	72	3
TAP	40	96	2
TAP	40	120	1
TAP	40	144	0
TAP	40	168	7
TAP	40	192	6
TAP	40	216	5
TAP	40	240	4
TAP	40	264	3
TAP	40	288	2
TAP	40	312	1
TAP	40	336	0
TAP	40	360	7
TAP	41	0	6
TAP	41	24	5
TAP	41	48	4
TAP	41	72	3
TAP	41	96	2
TAP	41	120	1
TAP	41	144	0
TAP	41	168	7
TAP	41	192	6
TAP	41	216	5
TAP	41	240	4
TAP	41	264	3
TAP	41	288	2
TAP	41	312	1
TAP	41	336	0
TAP	41	360	7
STR	42	0	6
SI_	42	0	6	96	24	3
STR	42	144	7
SI_	42	144	7	96	24	2
TAP	42	192	4
TAP	42	264	5
TAP	42	336	6
BRK	43	0	0
BRK	43	0	7
TAP	44	0	1
TAP	44	0	7
TAP	44	48	0
TAP	44	96	5
TAP	44	96	6
TAP	44	144	4
TAP	44	192	1
TAP	44	192	3
TAP	44	240	2
TAP	44	288	4
TAP	44	288	5
TAP	44	336	6
TAP	45	0	0
TAP	45	0	7
TAP	45	48	1
TAP	45	96	2
STR	45	144	3
SCL	45	144	3	96	48	0
TAP	46	0	4
TAP	46	0	6
TAP	46	48	5
TAP	46	96	2
TAP	46	96	3
TAP	46	144	1
TAP	46	192	0
TAP	46	192	7
TAP	46	240	6
TAP	46	288	3
TAP	46	288	5
TAP	46	336	4
TAP	47	0	6
TAP	47	0	7
TAP	47	48	0
TAP	47	96	1
STR	47	144	2
SI_	47	144	2	96	48	7
BRK	47	288	0
TAP	48	0	0
TAP	48	0	2
TAP	48	48	1
TAP	48	96	3
TAP	48	96	4
TAP	48	144	5
TAP	48	192	0
TAP	48	192	6
TAP	48	240	7
TAP	48	288	4
TAP	48	288	5
TAP	48	336	3
TAP	49	0	1
TAP	49	0	2
TAP	49	48	0
TAP	49	96	7
STR	49	144	6
SCR	49	144	6	96	48	1
TAP	50	0	0
TAP	50	48	7
TAP	50	96	6
TAP	50	144	5
TAP	50	192	4
TAP	50	240	3
TAP	50	288	2
TAP	50	336	1
TAP	51	0	0
TAP	51	0	7
TAP	51	48	5
TAP	51	48	6
TAP	51	96	3
TAP	51	96	4
TAP	51	144	1
TAP	51	144	2
TAP	51	240	3
TAP	51	240	5
TAP	51	288	4
TAP	51	288	6
STR	52	0	0
SI_	52	0	0	96	48	4
TAP	52	48	1
TAP	52	96	2
TAP	52	144	3
STR	52	192	4
SI_	52	192	4	96	48	0
TAP	52	240	5
TAP	52	288	6
TAP	52	336	7
STR	53	0	6
SI_	53	0	6	96	48	1
TAP	53	48	5
TAP	53	96	4
STR	53	144	3
SI_	53	144	3	96	48	0
STR	54	0	7
SI_	54	0	7	96	48	3
TAP	54	48	6
TAP	54	96	5
TAP	54	144	4
STR	54	192	3
SI_	54	192	3	96	48	7
TAP	54	240	2
TAP	54	288	1
TAP	54	336	0
STR	55	0	1
SI_	55	0	1	96	48	6
TAP	55	48	2
TAP	55	96	3
STR	55	144	4
SI_	55	144	4	96	48	7
BRK	55	288	0
STR	56	0	0
SI_	56	0	0	96	48	4
TAP	56	48	1
TAP	56	96	2
TAP	56	144	3
STR	56	192	4
SI_	56	192	4	96	48	0
TAP	56	240	5
TAP	56	288	6
TAP	56	336	7
STR	57	0	6
SI_	57	0	6	96	48	1
TAP	57	48	5
TAP	57	96	4
STR	57	144	3
SI_	57	144	3	96	48	0
TAP	58	0	2
TAP	58	0	3
TAP	58	48	2
TAP	58	48	3
TAP	58	96	3
TAP	58	96	4
TAP	58	144	4
TAP	58	144	5
TAP	58	192	5
TAP	58	192	6
TAP	58	240	6
TAP	58	240	7
TAP	58	288	0
TAP	58	288	7
TAP	58	336	0
TAP	58	336	1
TAP	59	0	0
TAP	59	0	7
TAP	59	48	5
TAP	59	48	6
TAP	59	96	3
TAP	59	96	4
TAP	59	144	1
TAP	59	144	2
TAP	59	240	2
TAP	59	240	3
TAP	59	288	3
TAP	59	288	4
TAP	60	0	4
TAP	60	0	5
TAP	60	48	6
TAP	60	48	7
TAP	60	96	0
TAP	60	96	1
TAP	60	144	2
TAP	60	144	3
TAP	60	240	1
TAP	60	240	2
TAP	60	288	0
TAP	60	288	7

T_REC_TAP	393
T_REC_BRK	7
T_REC_XTP	0
T_REC_HLD	8
T_REC_XHO	0
T_REC_STR	28
T_REC_BST	0
T_REC_XST	0
T_REC_TTP	0
T_REC_THO	0
T_REC_SLD	28
T_REC_ALL	464
T_NUM_TAP	421
T_NUM_BRK	7
T_NUM_HLD	8
T_NUM_SLD	28
T_NUM_ALL	464
T_JUDGE_TAP	428
T_JUDGE_HLD	42
T_JUDGE_SLD	28
T_JUDGE_ALL	498
TTM_EACHPAIRS	73
TTM_SCR_TAP	210500
TTM_SCR_BRK	18200
TTM_SCR_HLD	8000
TTM_SCR_SLD	42000
TTM_SCR_ALL	278700
TTM_SCR_S	269700
TTM_SCR_SS	278000
TTM_RAT_ACV	10025

