VERSION	0.00.00	1.03.00
FES_MODE	0
BPM_DEF	180.000	180.000	180.000	180.000
MET_DEF	4	4
RESOLUTION	384
CLK_DEF	384
COMPATIBLE_CODE	MA2

BPM	0	0	180.000
MET	0	0	4	4

STR	1	0	1
SCL	1	0	1	96	192	6
STR	2	0	2
SCL	2	0	2	96	192	7
STR	3	0	6
SCR	3	0	6	96	192	1
STR	4	0	5
SCR	4	0	5	96	192	0
STR	5	0	1
SCR	5	0	1	96	192	4
STR	6	0	2
SI_	6	0	2	96	96	6
STR	6	192	3
SI_	6	192	3	96	96	7
STR	7	0	6
SCL	7	0	6	96	192	3
STR	8	0	5
SI_	8	0	5	96	96	1
STR	8	192	4
SI_	8	192	4	96	96	0
TAP	9	0	7
TAP	9	96	0
TAP	9	96	7
TAP	9	192	7
TAP	9	288	0
TAP	9	288	7
TAP	10	0	7
TAP	10	96	0
TAP	10	96	7
TAP	10	192	6
TAP	10	192	7
TAP	10	288	1
TAP	10	288	7
TAP	11	0	0
TAP	11	96	0
TAP	11	96	7
TAP	11	192	0
TAP	11	288	0
TAP	11	288	7
TAP	12	0	0
TAP	12	96	0
TAP	12	96	7
TAP	12	192	0
TAP	12	192	1
TAP	12	288	0
TAP	12	288	6
TAP	13	0	0
TAP	13	48	7
TAP	13	96	0
TAP	13	144	7
TAP	13	192	0
TAP	13	240	7
TAP	13	288	0
TAP	13	336	7
TAP	14	0	1
TAP	14	48	6
TAP	14	96	1
TAP	14	144	6
TAP	14	192	1
TAP	14	240	6
TAP	14	288	1
TAP	14	336	6
TAP	15	0	0
TAP	15	48	0
TAP	15	96	7
TAP	15	144	7
TAP	15	192	0
TAP	15	240	0
TAP	15	288	7
TAP	15	336	7
TAP	16	0	0
TAP	16	24	7
TAP	16	48	0
TAP	16	72	7
TAP	16	96	0
TAP	16	120	7
TAP	16	144	0
TAP	16	168	7
TAP	16	192	0
TAP	16	216	7
TAP	16	240	0
TAP	16	264	7
TAP	16	288	0
TAP	16	312	7
TAP	16	336	0
TAP	16	360	7
BRK	17	288	0
BRK	17	288	7
TAP	18	0	1
TAP	18	0	5
TAP	18	96	2
TAP	18	96	6
TAP	18	192	1
TAP	18	192	5
TAP	18	288	2
TAP	18	288	3
TAP	19	0	1
TAP	19	0	5
TAP	19	96	2
TAP	19	96	3
TAP	19	144	2
HLD	19	240	5	144
TAP	20	0	6
TAP	20	96	1
TAP	20	96	5
TAP	20	192	2
TAP	20	192	6
TAP	20	288	4
TAP	20	288	5
TAP	21	0	2
TAP	21	0	6
TAP	21	96	4
TAP	21	96	5
TAP	21	144	5
TAP	21	240	2
TAP	21	240	3
TAP	21	288	2
TAP	22	0	1
TAP	22	0	5
TAP	22	96	2
TAP	22	96	6
TAP	22	192	1
TAP	22	192	5
TAP	22	288	2
TAP	22	288	3
TAP	23	0	1
TAP	23	0	5
TAP	23	96	2
TAP	23	96	3
TAP	23	144	2
HLD	23	240	5	144
TAP	24	0	6
TAP	24	96	1
TAP	24	96	5
TAP	24	192	2
TAP	24	192	6
TAP	24	288	1
TAP	24	336	0
HLD	25	0	7	144
TAP	25	72	6
HLD	25	144	0	96
TAP	25	240	1
TAP	25	288	0
TAP	25	288	7
TAP	26	0	6
TAP	26	48	6
TAP	26	96	1
TAP	26	144	1
TAP	26	192	6
TAP	26	240	6
TAP	26	288	2
TAP	26	336	2
TAP	27	0	5
TAP	27	48	5
TAP	27	96	3
TAP	27	144	3
HLD	27	240	4	144
TAP	28	0	2
TAP	28	48	2
TAP	28	96	5
TAP	28	144	5
TAP	28	192	2
TAP	28	240	2
TAP	28	288	6
TAP	28	336	6
TAP	29	0	1
TAP	29	48	1
TAP	29	96	5
HLD	29	144	5	144
TAP	29	240	0
HLD	29	288	0	96
TAP	30	0	1
TAP	30	48	1
TAP	30	96	0
TAP	30	144	0
TAP	30	192	7
TAP	30	240	7
TAP	30	288	6
TAP	30	336	6
TAP	31	0	7
TAP	31	48	7
TAP	31	96	0
HLD	31	144	0	96
HLD	31	240	3	144
TAP	32	0	1
TAP	32	48	1
TAP	32	96	6
TAP	32	144	6
TAP	32	192	1
TAP	32	240	1
TAP	32	288	6
TAP	32	336	7
TAP	33	0	0
TAP	33	48	1
STR	33	96	0
SCR	33	96	0	96	96	3
STR	33	144	7
SCL	33	144	7	96	96	4
TAP	34	0	3
TAP	34	96	3
TAP	34	192	4
TAP	34	288	4
TAP	35	0	3
HLD	35	96	3	96
TAP	35	192	4
HLD	35	288	4	96
TAP	36	0	2
TAP	36	96	2
TAP	36	192	5
TAP	36	288	5
TAP	37	0	2
HLD	37	96	2	96
TAP	37	192	5
HLD	37	288	5	96
TAP	38	0	1
TAP	38	48	1
TAP	38	96	1
TAP	38	192	6
TAP	38	240	6
TAP	38	288	6
TAP	39	0	1
TAP	39	48	1
HLD	39	96	1	96
TAP	39	192	6
TAP	39	240	6
HLD	39	288	6	96
TAP	40	0	0
TAP	40	48	0
TAP	40	96	0
TAP	40	144	0
TAP	40	192	7
TAP	40	240	7
TAP	40	288	7
TAP	40	336	7
TAP	41	0	0
TAP	41	24	7
TAP	41	48	0
TAP	41	72	7
TAP	41	96	0
TAP	41	120	7
TAP	41	144	0
TAP	41	168	7
TAP	41	192	0
TAP	41	216	7
TAP	41	240	0
TAP	41	264	7
TAP	41	288	0
TAP	41	312	7
TAP	41	336	0
TAP	41	360	7
HLD	42	0	1	48
TAP	42	48	7
TAP	42	72	0
TAP	42	120	7
TAP	42	144	0
HLD	42	192	6	48
TAP	42	240	0
TAP	42	264	7
TAP	42	312	0
TAP	42	336	7
STR	43	0	1
SCL	43	0	1	96	96	6
BRK	43	288	0
BRK	43	288	7
TAP	44	0	4
TAP	44	48	4
TAP	44	96	2
TAP	44	144	2
TAP	44	192	5
TAP	44	240	5
TAP	44	288	3
TAP	44	336	3
TAP	45	0	4
TAP	45	48	4
TAP	45	96	5
STR	45	144	5
SI_	45	144	5	96	96	1
TAP	46	0	0
TAP	46	48	0
TAP	46	96	1
TAP	46	144	1
TAP	46	192	7
TAP	46	240	7
TAP	46	288	0
TAP	46	336	0
TAP	47	0	6
TAP	47	48	6
TAP	47	96	1
HLD	47	144	1	144
TAP	47	240	2
TAP	47	288	2
TAP	48	0	3
TAP	48	0	5
TAP	48	48	4
TAP	48	96	5
TAP	48	144	4
TAP	48	192	2
TAP	48	240	3
TAP	48	288	4
TAP	48	336	3
TAP	49	0	4
TAP	49	48	5
TAP	49	96	4
TAP	49	144	3
TAP	49	144	5
TAP	49	240	2
TAP	49	240	4
TAP	50	0	1
TAP	50	48	0
TAP	50	96	7
TAP	50	144	0
TAP	50	192	7
TAP	50	240	6
TAP	50	288	7
TAP	50	336	0
TAP	51	0	1
TAP	51	48	0
TAP	51	96	7
HLD	51	145	6	144
BRK	51	240	1
BRK	51	288	1
TAP	52	0	2
TAP	52	0	5
TAP	52	48	4
TAP	52	96	2
TAP	52	96	5
TAP	52	144	3
TAP	52	192	2
TAP	52	192	5
TAP	52	240	4
TAP	52	288	2
TAP	52	288	5
TAP	52	336	4
TAP	53	0	2
TAP	53	0	5
TAP	53	48	3
TAP	53	96	2
TAP	53	96	5
STR	53	144	4
SI_	53	144	4	96	96	0
TAP	54	0	1
TAP	54	0	6
TAP	54	48	0
TAP	54	96	1
TAP	54	96	6
TAP	54	144	7
TAP	54	192	1
TAP	54	192	6
TAP	54	240	0
TAP	54	288	1
TAP	54	288	6
TAP	54	336	0
TAP	55	0	1
TAP	55	0	6
TAP	55	48	7
TAP	55	96	1
TAP	55	96	6
HLD	55	144	0	144
TAP	55	240	7
TAP	55	288	7
TAP	56	0	3
TAP	56	0	4
TAP	56	48	5
TAP	56	96	3
TAP	56	96	4
TAP	56	144	2
TAP	56	192	3
TAP	56	192	4
TAP	56	240	5
TAP	56	288	3
TAP	56	288	4
TAP	56	336	5
TAP	57	0	3
TAP	57	0	4
TAP	57	48	2
TAP	57	96	5
TAP	57	144	4
TAP	57	144	5
TAP	57	240	2
TAP	57	240	3
TAP	58	0	0
TAP	58	0	7
TAP	58	48	1
TAP	58	96	0
TAP	58	96	7
TAP	58	144	6
TAP	58	192	0
TAP	58	192	7
TAP	58	240	1
TAP	58	288	0
TAP	58	288	7
TAP	58	336	1
TAP	59	0	6
TAP	59	0	7
STR	59	96	1
SI_	59	96	1	96	96	4
STR	59	144	0
SI_	59	144	0	96	96	5
TAP	60	0	6
TAP	60	0	7
STR	60	96	1
SI_	60	96	1	96	96	4
STR	60	144	0
SI_	60	144	0	96	96	5
TAP	61	0	2
TAP	61	0	3

T_REC_TAP	342
T_REC_BRK	6
T_REC_XTP	0
T_REC_HLD	20
T_REC_XHO	0
T_REC_STR	19
T_REC_BST	0
T_REC_XST	0
T_REC_TTP	0
T_REC_THO	0
T_REC_SLD	19
T_REC_ALL	406
T_NUM_TAP	361
T_NUM_BRK	6
T_NUM_HLD	20
T_NUM_SLD	19
T_NUM_ALL	406
T_JUDGE_TAP	367
T_JUDGE_HLD	47
T_JUDGE_SLD	19
T_JUDGE_ALL	433
TTM_EACHPAIRS	62
TTM_SCR_TAP	180500
TTM_SCR_BRK	15600
TTM_SCR_HLD	20000
TTM_SCR_SLD	28500
TTM_SCR_ALL	244600
TTM_SCR_S	236700
TTM_SCR_SS	244000
TTM_RAT_ACV	10024

