VERSION	0.00.00	1.03.00
FES_MODE	0
BPM_DEF	180.000	180.000	180.000	180.000
MET_DEF	4	4
RESOLUTION	384
CLK_DEF	384
COMPATIBLE_CODE	MA2

BPM	0	0	180.000
MET	0	0	4	4

HLD	1	0	0	384
HLD	2	0	1	384
HLD	3	0	2	384
HLD	4	0	3	384
HLD	5	0	0	384
HLD	6	0	7	384
HLD	7	0	6	384
HLD	8	0	5	384
TAP	9	0	4
TAP	9	96	4
TAP	9	192	3
TAP	9	288	3
TAP	10	0	2
TAP	10	96	2
TAP	10	192	1
TAP	10	288	1
TAP	11	0	2
TAP	11	96	2
TAP	11	192	3
TAP	11	288	3
TAP	12	0	4
TAP	12	96	4
TAP	12	192	5
TAP	12	288	5
TAP	13	0	6
TAP	13	96	5
TAP	13	192	4
TAP	13	288	3
TAP	14	0	2
TAP	14	96	1
TAP	14	192	0
TAP	14	288	7
TAP	15	0	0
TAP	15	96	2
TAP	15	192	4
TAP	15	288	6
TAP	16	0	7
TAP	16	96	5
TAP	16	192	3
TAP	16	288	1
HLD	17	0	0	288
BRK	17	288	7
TAP	18	0	0
TAP	18	96	1
TAP	18	192	2
TAP	18	288	3
TAP	19	0	2
TAP	19	96	1
TAP	19	144	1
HLD	19	240	7	144
TAP	20	0	6
TAP	20	96	5
TAP	20	192	4
TAP	20	288	3
TAP	21	0	4
TAP	21	96	5
TAP	21	144	5
TAP	21	240	6
TAP	21	288	6
TAP	21	288	7
TAP	22	0	5
TAP	22	96	4
TAP	22	192	3
TAP	22	288	2
TAP	23	0	1
TAP	23	96	0
TAP	23	144	0
HLD	23	240	7	144
TAP	24	0	0
TAP	24	96	1
TAP	24	192	2
TAP	24	288	3
TAP	25	0	2
TAP	25	48	2
TAP	25	144	1
TAP	25	240	0
TAP	25	288	0
TAP	25	288	7
TAP	26	0	6
TAP	26	96	4
TAP	26	192	2
TAP	26	288	0
TAP	27	0	1
TAP	27	96	3
TAP	27	144	3
HLD	27	240	4	144
TAP	28	0	3
TAP	28	96	2
TAP	28	192	1
TAP	28	288	0
TAP	29	0	1
TAP	29	96	2
TAP	29	144	2
TAP	29	240	4
TAP	29	288	4
TAP	29	288	5
TAP	30	0	3
TAP	30	96	1
TAP	30	192	7
TAP	30	288	5
TAP	31	0	6
TAP	31	96	0
TAP	31	144	0
HLD	31	240	1	144
TAP	32	0	0
TAP	32	96	7
TAP	32	192	6
TAP	32	288	5
TAP	33	0	6
TAP	33	48	6
TAP	33	96	7
TAP	33	144	7
TAP	33	240	0
TAP	33	288	0
TAP	33	288	1
HLD	34	0	7	384
HLD	35	0	6	384
HLD	36	0	5	384
HLD	37	0	4	384
STR	38	0	3
SI_	38	0	3	96	96	7
STR	39	0	0
SI_	39	0	0	96	96	4
HLD	40	0	7	192
HLD	40	192	0	192
HLD	41	0	1	192
HLD	41	192	2	192
TAP	42	0	1
TAP	42	72	1
TAP	42	144	0
TAP	42	192	0
TAP	42	264	0
TAP	42	336	7
TAP	43	0	6
TAP	43	0	7
BRK	43	288	0
BRK	43	288	7
TAP	44	0	1
TAP	44	96	2
TAP	44	192	3
TAP	44	288	4
TAP	45	0	3
TAP	45	96	1
TAP	45	144	1
HLD	45	240	7	144
TAP	46	0	6
TAP	46	96	5
TAP	46	192	4
TAP	46	288	3
TAP	47	0	4
TAP	47	96	5
TAP	47	144	5
TAP	47	240	6
TAP	47	288	6
TAP	47	288	7
TAP	48	0	0
TAP	48	96	1
TAP	48	192	2
TAP	48	288	3
TAP	49	0	2
TAP	49	96	0
TAP	49	144	0
HLD	49	240	7	144
TAP	50	0	0
TAP	50	96	1
TAP	50	192	2
TAP	50	288	3
TAP	51	0	2
TAP	51	48	2
TAP	51	144	1
TAP	51	240	0
TAP	51	288	0
TAP	51	288	7
TAP	52	0	7
TAP	52	96	6
TAP	52	96	7
TAP	52	192	2
TAP	52	288	2
TAP	52	288	3
TAP	53	0	1
TAP	53	96	0
TAP	53	144	0
HLD	53	240	7	144
TAP	54	0	0
TAP	54	96	0
TAP	54	96	1
TAP	54	192	0
TAP	54	288	0
TAP	54	288	7
TAP	55	0	1
TAP	55	96	2
TAP	55	144	2
TAP	55	240	3
TAP	55	288	3
TAP	55	288	4
TAP	56	0	2
TAP	56	96	0
TAP	56	96	1
TAP	56	192	2
TAP	56	288	3
TAP	56	288	4
TAP	57	0	2
TAP	57	96	1
TAP	57	144	1
HLD	57	240	0	144
TAP	58	0	7
TAP	58	96	7
TAP	58	192	6
TAP	58	288	6
TAP	59	0	7
TAP	59	48	0
TAP	59	96	1
TAP	59	144	2
TAP	59	240	4
TAP	59	288	4
TAP	59	288	5
TAP	60	0	3
TAP	60	48	2
TAP	60	96	1
TAP	60	144	0
TAP	60	240	6
TAP	60	288	5
TAP	60	288	6
BRK	61	0	0
BRK	61	0	7

T_REC_TAP	191
T_REC_BRK	5
T_REC_XTP	0
T_REC_HLD	25
T_REC_XHO	0
T_REC_STR	2
T_REC_BST	0
T_REC_XST	0
T_REC_TTP	0
T_REC_THO	0
T_REC_SLD	2
T_REC_ALL	225
T_NUM_TAP	193
T_NUM_BRK	5
T_NUM_HLD	25
T_NUM_SLD	2
T_NUM_ALL	225
T_JUDGE_TAP	198
T_JUDGE_HLD	142
T_JUDGE_SLD	2
T_JUDGE_ALL	342
TTM_EACHPAIRS	18
TTM_SCR_TAP	96500
TTM_SCR_BRK	13000
TTM_SCR_HLD	25000
TTM_SCR_SLD	3000
TTM_SCR_ALL	137500
TTM_SCR_S	132900
TTM_SCR_SS	137000
TTM_RAT_ACV	10036

