VERSION	0.00.00	1.03.00
FES_MODE	0
BPM_DEF	180.000	180.000	180.000	180.000
MET_DEF	4	4
RESOLUTION	384
CLK_DEF	384
COMPATIBLE_CODE	MA2

BPM	0	0	180.000
MET	0	0	4	4

TAP	1	0	6
TAP	1	192	6
TAP	2	0	6
TAP	2	192	6
TAP	3	0	7
TAP	3	192	7
TAP	4	0	7
TAP	4	192	7
TAP	5	0	0
TAP	5	192	0
TAP	6	0	0
TAP	6	192	0
TAP	7	0	1
TAP	7	192	1
TAP	8	0	1
TAP	8	192	1
TAP	9	0	1
TAP	9	96	1
TAP	9	192	1
TAP	10	0	0
TAP	10	96	0
TAP	10	192	0
TAP	11	0	7
TAP	11	96	7
TAP	11	192	7
TAP	12	0	6
TAP	12	96	6
TAP	12	192	6
TAP	13	0	0
TAP	13	0	7
TAP	13	96	0
TAP	13	96	7
TAP	13	192	0
TAP	13	192	7
TAP	14	0	0
TAP	14	0	1
TAP	14	96	0
TAP	14	96	1
TAP	14	192	0
TAP	14	192	1
TAP	15	0	2
TAP	15	96	2
TAP	15	192	3
TAP	15	288	3
TAP	16	0	4
TAP	16	96	4
TAP	16	192	5
TAP	16	288	5
BRK	17	0	6
TAP	18	0	0
TAP	18	96	0
TAP	18	192	1
TAP	18	288	1
TAP	19	0	0
TAP	19	96	7
TAP	19	192	6
TAP	19	288	5
TAP	20	0	4
TAP	20	96	4
TAP	20	192	3
TAP	20	288	3
TAP	21	0	4
TAP	21	96	4
TAP	21	192	5
TAP	21	288	5
TAP	22	0	6
TAP	22	96	6
TAP	22	192	7
TAP	22	288	7
TAP	23	0	6
TAP	23	96	5
TAP	23	192	4
TAP	23	288	3
TAP	24	0	2
TAP	24	96	2
TAP	24	192	1
TAP	24	288	1
HLD	25	0	0	288
TAP	26	0	7
TAP	26	96	6
TAP	26	192	7
TAP	26	288	6
TAP	27	0	7
TAP	27	96	0
TAP	27	192	1
TAP	27	288	2
TAP	28	0	3
TAP	28	96	4
TAP	28	192	3
TAP	28	288	4
TAP	29	0	5
TAP	29	96	4
TAP	29	192	3
TAP	29	288	2
TAP	30	0	1
TAP	30	96	0
TAP	30	192	1
TAP	30	288	0
TAP	31	0	7
TAP	31	96	6
TAP	31	192	7
TAP	31	288	6
TAP	32	0	7
TAP	32	96	7
TAP	32	192	0
TAP	32	288	0
HLD	33	0	0	288
HLD	33	0	1	288
STR	34	0	2
SI_	34	0	2	96	192	7
STR	36	0	7
SI_	36	0	7	96	192	4
STR	38	0	0
SI_	38	0	0	96	192	4
STR	39	0	3
SI_	39	0	3	96	192	0
STR	40	0	7
SI_	40	0	7	96	192	3
STR	41	0	4
SI_	41	0	4	96	192	7
BRK	43	0	2
BRK	43	0	5
TAP	44	0	3
TAP	44	96	3
TAP	44	192	4
TAP	44	288	4
TAP	45	0	3
TAP	45	96	4
TAP	45	192	3
TAP	45	288	4
TAP	46	0	2
TAP	46	96	2
TAP	46	192	3
TAP	46	288	3
TAP	47	0	2
TAP	47	96	1
TAP	47	192	0
TAP	47	288	7
TAP	48	0	6
TAP	48	96	6
TAP	48	192	5
TAP	48	288	5
TAP	49	0	6
TAP	49	96	7
TAP	49	192	6
TAP	49	288	7
TAP	50	0	0
TAP	50	96	0
TAP	50	192	1
TAP	50	288	1
HLD	51	0	2	288
HLD	51	0	3	288
TAP	52	0	1
TAP	52	96	0
TAP	52	192	7
TAP	52	288	6
TAP	53	0	5
TAP	53	96	4
TAP	53	192	3
TAP	53	288	2
TAP	54	0	2
TAP	54	96	3
TAP	54	192	4
TAP	54	288	5
TAP	55	0	6
TAP	55	96	7
TAP	55	192	0
TAP	55	288	1
TAP	56	0	1
TAP	56	96	0
TAP	56	192	7
TAP	56	288	6
TAP	57	0	5
TAP	57	96	4
TAP	57	192	3
TAP	57	288	2
TAP	58	0	2
TAP	58	96	3
TAP	58	192	4
TAP	58	288	5
HLD	59	0	5	144
HLD	59	0	6	144
BRK	59	288	5
BRK	59	288	6
HLD	60	0	0	144
HLD	60	0	7	144
BRK	60	288	0
BRK	60	288	7

T_REC_TAP	160
T_REC_BRK	7
T_REC_XTP	0
T_REC_HLD	9
T_REC_XHO	0
T_REC_STR	6
T_REC_BST	0
T_REC_XST	0
T_REC_TTP	0
T_REC_THO	0
T_REC_SLD	6
T_REC_ALL	188
T_NUM_TAP	166
T_NUM_BRK	7
T_NUM_HLD	9
T_NUM_SLD	6
T_NUM_ALL	188
T_JUDGE_TAP	173
T_JUDGE_HLD	42
T_JUDGE_SLD	6
T_JUDGE_ALL	221
TTM_EACHPAIRS	13
TTM_SCR_TAP	83000
TTM_SCR_BRK	18200
TTM_SCR_HLD	9000
TTM_SCR_SLD	9000
TTM_SCR_ALL	119200
TTM_SCR_S	114950
TTM_SCR_SS	118500
TTM_RAT_ACV	10059

