VERSION	0.00.00	1.03.00
FES_MODE	0
BPM_DEF	132.000	132.000	132.000	132.000
MET_DEF	4	4
RESOLUTION	384
CLK_DEF	384
COMPATIBLE_CODE	MA2

BPM	0	0	132.000
MET	0	0	4	4

HLD	1	0	3	336
TAP	1	0	4
TAP	1	48	4
TAP	1	96	5
TAP	1	144	5
TAP	1	192	6
TAP	1	264	6
TAP	1	336	7
HLD	2	0	0	336
TAP	2	0	7
TAP	2	48	7
TAP	2	96	6
TAP	2	144	6
TAP	2	192	5
TAP	2	264	5
TAP	2	336	4
TAP	3	0	3
HLD	3	0	4	336
TAP	3	48	3
TAP	3	96	2
TAP	3	144	2
TAP	3	192	1
TAP	3	264	1
TAP	3	336	0
TAP	4	0	0
HLD	4	0	7	336
TAP	4	48	0
TAP	4	96	1
TAP	4	144	1
TAP	4	192	2
TAP	4	264	2
TAP	4	336	3
TAP	5	0	3
TAP	5	0	4
TAP	5	48	4
TAP	5	96	3
TAP	5	96	5
TAP	5	144	5
TAP	5	192	3
TAP	5	192	6
TAP	5	264	3
TAP	5	264	6
TAP	5	336	3
TAP	5	336	7
TAP	6	0	0
TAP	6	0	7
TAP	6	48	7
TAP	6	96	0
TAP	6	96	6
TAP	6	144	6
TAP	6	192	0
TAP	6	192	5
TAP	6	264	0
TAP	6	264	5
TAP	6	336	0
TAP	6	336	4
TAP	7	0	3
TAP	7	0	4
TAP	7	48	3
TAP	7	96	2
TAP	7	96	4
TAP	7	144	2
TAP	7	192	1
TAP	7	192	4
TAP	7	264	1
TAP	7	264	4
TAP	7	336	0
TAP	7	336	4
TAP	8	0	0
TAP	8	0	7
TAP	8	48	0
TAP	8	96	1
TAP	8	96	7
TAP	8	144	1
TAP	8	192	2
TAP	8	192	7
TAP	8	264	2
TAP	8	264	7
TAP	8	336	3
TAP	8	336	7
TAP	9	0	3
TAP	9	0	4
TAP	9	48	3
TAP	9	48	5
TAP	9	96	3
TAP	9	96	6
TAP	9	144	3
TAP	9	144	7
TAP	9	192	3
TAP	9	192	4
TAP	9	240	3
TAP	9	240	5
TAP	9	288	3
TAP	9	288	6
TAP	9	336	3
TAP	9	336	7
TAP	10	0	3
TAP	10	0	4
TAP	10	48	2
TAP	10	48	4
TAP	10	96	1
TAP	10	96	4
TAP	10	144	0
TAP	10	144	4
TAP	10	192	3
TAP	10	192	4
TAP	10	240	2
TAP	10	240	4
TAP	10	288	1
TAP	10	288	4
TAP	10	336	0
TAP	10	336	4
TAP	11	0	4
TAP	11	24	3
TAP	11	48	4
TAP	11	72	3
TAP	11	96	5
TAP	11	120	2
TAP	11	144	5
TAP	11	168	2
TAP	11	192	6
TAP	11	216	1
TAP	11	240	6
TAP	11	264	1
TAP	11	288	7
TAP	11	312	0
TAP	11	336	7
TAP	11	360	0
STR	12	0	7
SI_	12	0	7	96	144	4
STR	12	96	1
SI_	12	96	1	96	48	4
STR	13	0	1
SI_	13	0	1	96	96	4
TAP	13	48	1
TAP	13	96	0
TAP	13	144	0
TAP	13	192	7
TAP	13	240	6
TAP	13	264	5
TAP	13	312	5
TAP	13	336	6
TAP	14	0	5
TAP	14	48	5
TAP	14	96	4
TAP	14	144	4
TAP	14	192	3
TAP	14	240	2
TAP	14	264	1
STR	15	0	6
SI_	15	0	6	96	96	3
TAP	15	48	6
TAP	15	96	7
TAP	15	144	7
TAP	15	192	0
TAP	15	240	1
TAP	15	264	2
TAP	15	312	2
TAP	15	336	1
TAP	16	0	2
TAP	16	48	2
TAP	16	96	3
TAP	16	144	3
TAP	16	192	4
TAP	16	240	5
TAP	16	264	6
STR	17	0	2
SI_	17	0	2	96	96	5
TAP	17	24	2
TAP	17	48	1
TAP	17	96	1
TAP	17	144	0
TAP	17	192	7
TAP	17	216	7
TAP	17	240	0
TAP	17	264	7
TAP	17	312	7
TAP	17	336	0
TAP	18	0	6
TAP	18	48	6
TAP	18	96	5
TAP	18	120	5
TAP	18	144	4
TAP	18	192	3
TAP	18	216	3
TAP	18	240	4
TAP	18	264	3
STR	19	0	5
SI_	19	0	5	96	96	2
TAP	19	24	5
TAP	19	48	6
TAP	19	96	6
TAP	19	144	7
TAP	19	192	0
TAP	19	216	0
TAP	19	240	7
TAP	19	264	0
TAP	19	312	0
TAP	19	336	7
TAP	20	0	1
TAP	20	48	1
TAP	20	96	2
TAP	20	120	2
TAP	20	144	3
BRK	20	192	4
BRK	20	240	5
BRK	20	288	6
BRK	20	336	7
STR	21	0	1
SI_	21	0	1	96	96	4
TAP	21	24	1
TAP	21	48	0
TAP	21	96	0
TAP	21	144	0
TAP	21	192	7
TAP	21	240	6
TAP	21	264	5
TAP	21	312	5
TAP	21	336	6
STR	22	0	5
SI_	22	0	5	96	96	2
TAP	22	24	5
TAP	22	48	4
TAP	22	96	4
TAP	22	144	4
TAP	22	192	3
TAP	22	240	2
TAP	22	264	1
STR	23	0	6
SI_	23	0	6	96	96	3
TAP	23	24	6
TAP	23	48	7
TAP	23	96	7
TAP	23	144	7
TAP	23	192	0
TAP	23	240	1
TAP	23	264	2
TAP	23	312	2
TAP	23	336	1
STR	24	0	2
SI_	24	0	2	96	96	5
TAP	24	24	2
TAP	24	48	3
TAP	24	96	3
TAP	24	144	3
TAP	24	192	4
TAP	24	240	5
TAP	24	264	6
STR	25	0	2
SI_	25	0	2	96	96	5
TAP	25	24	2
TAP	25	48	1
TAP	25	96	1
TAP	25	144	0
TAP	25	192	7
TAP	25	216	7
TAP	25	240	0
TAP	25	264	7
TAP	25	312	7
TAP	25	336	0
STR	26	0	6
SI_	26	0	6	96	72	2
TAP	26	24	6
TAP	26	48	5
TAP	26	96	5
TAP	26	144	4
TAP	26	192	3
TAP	26	216	3
TAP	26	240	4
TAP	26	264	3
STR	27	0	5
SI_	27	0	5	96	96	2
TAP	27	24	5
TAP	27	48	6
TAP	27	96	6
TAP	27	144	7
TAP	27	192	0
TAP	27	216	0
TAP	27	240	7
TAP	27	264	0
TAP	27	312	0
TAP	27	336	7
BRK	28	0	3
TAP	28	24	3
TAP	28	48	4
TAP	28	72	4
BRK	28	96	2
TAP	28	120	2
TAP	28	144	5
TAP	28	168	5
BRK	28	192	1
TAP	28	216	1
TAP	28	240	6
TAP	28	264	6
BRK	28	288	0
TAP	28	312	0
TAP	28	336	7
TAP	28	360	7
STR	29	0	1
SI_	29	0	1	96	48	6
TAP	29	0	2
TAP	29	48	2
TAP	29	96	3
TAP	29	144	3
STR	29	192	0
SI_	29	192	0	96	48	5
BRK	29	192	4
TAP	29	240	4
STR	30	0	2
SI_	30	0	2	96	48	7
TAP	30	0	3
TAP	30	48	3
TAP	30	96	4
TAP	30	144	4
STR	30	192	1
SI_	30	192	1	96	48	6
BRK	30	192	5
TAP	30	240	5
TAP	31	0	5
STR	31	0	6
SI_	31	0	6	96	48	1
TAP	31	48	5
TAP	31	96	4
TAP	31	144	4
BRK	31	192	3
STR	31	192	7
SI_	31	192	7	96	48	2
TAP	31	240	3
TAP	32	0	4
STR	32	0	5
SI_	32	0	5	96	48	0
TAP	32	48	4
TAP	32	96	3
TAP	32	144	3
BRK	32	192	2
STR	32	192	6
SI_	32	192	6	96	48	1
TAP	32	240	2
STR	33	0	1
SI_	33	0	1	96	48	6
TAP	33	0	2
TAP	33	48	2
TAP	33	96	3
TAP	33	144	3
STR	33	192	0
SI_	33	192	0	96	48	5
BRK	33	192	4
TAP	33	240	4
TAP	33	264	3
TAP	33	312	3
TAP	33	336	4
STR	34	0	2
SI_	34	0	2	96	48	7
TAP	34	0	3
TAP	34	48	3
TAP	34	96	4
TAP	34	144	4
STR	34	192	1
SI_	34	192	1	96	48	6
BRK	34	192	5
TAP	34	240	5
TAP	34	264	4
TAP	34	312	4
TAP	34	336	5
TAP	35	0	5
STR	35	0	6
SI_	35	0	6	96	48	1
TAP	35	48	5
TAP	35	96	4
TAP	35	144	4
BRK	35	192	3
STR	35	192	7
SI_	35	192	7	96	48	2
TAP	35	240	3
TAP	35	264	4
TAP	35	312	4
TAP	35	336	3
TAP	36	0	4
STR	36	0	5
SI_	36	0	5	96	48	0
TAP	36	48	4
TAP	36	96	3
TAP	36	144	3
BRK	36	192	2
STR	36	192	6
SI_	36	192	6	96	48	1
TAP	36	240	1
TAP	36	288	0
TAP	36	336	7
STR	37	0	2
SI_	37	0	2	96	48	7
STR	37	96	5
SI_	37	96	5	96	48	0
STR	37	192	3
SI_	37	192	3	96	48	6
STR	37	288	4
SI_	37	288	4	96	48	1
STR	38	0	3
SI_	38	0	3	96	48	0
STR	38	96	5
SI_	38	96	5	96	48	2
STR	38	192	4
SI_	38	192	4	96	48	7
STR	38	288	6
SI_	38	288	6	96	48	1
STR	39	0	5
SI_	39	0	5	96	48	0
STR	39	96	2
SI_	39	96	2	96	48	7
STR	39	192	4
SI_	39	192	4	96	48	1
STR	39	288	3
SI_	39	288	3	96	48	6
STR	40	0	4
SI_	40	0	4	96	48	7
STR	40	96	2
SI_	40	96	2	96	48	5
STR	40	192	3
SI_	40	192	3	96	48	0
STR	41	0	2
SI_	41	0	2	96	48	7
TAP	41	48	2
STR	41	96	5
SI_	41	96	5	96	48	0
TAP	41	144	5
STR	41	192	3
SI_	41	192	3	96	48	6
TAP	41	240	3
STR	41	288	4
SI_	41	288	4	96	48	1
TAP	41	336	4
STR	42	0	3
SI_	42	0	3	96	48	0
TAP	42	48	3
STR	42	96	5
SI_	42	96	5	96	48	2
TAP	42	144	5
STR	42	192	4
SI_	42	192	4	96	48	7
TAP	42	240	4
STR	42	288	6
SI_	42	288	6	96	48	1
TAP	42	336	6
STR	43	0	5
SI_	43	0	5	96	48	0
TAP	43	48	5
STR	43	96	2
SI_	43	96	2	96	48	7
TAP	43	144	2
STR	43	192	4
SI_	43	192	4	96	48	1
TAP	43	240	4
STR	43	288	6
SI_	43	288	6	96	48	2
STR	44	0	2
SI_	44	0	2	96	48	5
STR	44	48	5
SI_	44	48	5	96	48	1
STR	44	96	1
SI_	44	96	1	96	48	6
STR	44	144	6
SI_	44	144	6	96	48	3
STR	44	192	3
SI_	44	192	3	96	192	0

T_REC_TAP	322
T_REC_BRK	16
T_REC_XTP	0
T_REC_HLD	4
T_REC_XHO	0
T_REC_STR	61
T_REC_BST	0
T_REC_XST	0
T_REC_TTP	0
T_REC_THO	0
T_REC_SLD	61
T_REC_ALL	464
T_NUM_TAP	383
T_NUM_BRK	16
T_NUM_HLD	4
T_NUM_SLD	61
T_NUM_ALL	464
T_JUDGE_TAP	399
T_JUDGE_HLD	28
T_JUDGE_SLD	61
T_JUDGE_ALL	488
TTM_EACHPAIRS	56
TTM_SCR_TAP	191500
TTM_SCR_BRK	41600
TTM_SCR_HLD	4000
TTM_SCR_SLD	91500
TTM_SCR_ALL	328600
TTM_SCR_S	317200
TTM_SCR_SS	327000
TTM_RAT_ACV	10048

