VERSION	0.00.00	1.03.00
FES_MODE	0
BPM_DEF	132.000	132.000	132.000	132.000
MET_DEF	4	4
RESOLUTION	384
CLK_DEF	384
COMPATIBLE_CODE	MA2

BPM	0	0	132.000
MET	0	0	4	4

TAP	5	0	0
TAP	5	96	1
TAP	5	192	2
TAP	5	288	3
TAP	6	0	4
TAP	6	96	5
TAP	6	192	6
TAP	6	288	7
TAP	7	0	7
TAP	7	96	6
TAP	7	192	5
TAP	7	288	4
TAP	8	0	3
TAP	8	96	2
TAP	8	192	1
TAP	8	288	0
TAP	9	0	0
TAP	9	48	0
TAP	9	96	1
TAP	9	144	1
TAP	9	192	2
TAP	9	240	2
TAP	9	288	3
TAP	9	336	3
TAP	10	0	4
TAP	10	48	4
TAP	10	96	5
TAP	10	144	5
TAP	10	192	6
TAP	10	240	6
TAP	10	288	7
TAP	10	336	7
TAP	11	0	7
TAP	11	48	6
TAP	11	96	5
TAP	11	144	4
TAP	11	192	3
TAP	11	240	2
TAP	11	288	1
TAP	11	336	0
STR	12	0	0
SCL	12	0	0	96	96	5
BRK	12	96	1
STR	12	192	4
SI_	12	192	4	96	48	1
TAP	12	240	4
TAP	13	0	5
TAP	13	48	5
TAP	13	96	7
TAP	13	144	7
TAP	13	192	6
TAP	13	240	4
TAP	13	264	4
TAP	13	336	3
TAP	14	0	2
TAP	14	48	2
TAP	14	96	0
TAP	14	144	0
TAP	14	192	1
TAP	14	240	3
TAP	14	264	3
TAP	15	0	4
TAP	15	48	4
TAP	15	96	0
TAP	15	144	0
TAP	15	192	7
TAP	15	240	6
TAP	15	264	6
TAP	15	336	5
TAP	16	0	1
TAP	16	48	1
TAP	16	96	2
TAP	16	144	2
TAP	16	192	3
TAP	16	240	4
BRK	16	264	4
TAP	17	0	3
TAP	17	48	3
TAP	17	96	6
TAP	17	144	6
TAP	17	192	5
TAP	17	240	4
TAP	17	264	4
TAP	17	336	3
TAP	18	0	7
TAP	18	48	7
TAP	18	96	0
TAP	18	144	0
TAP	18	192	1
TAP	18	240	2
TAP	18	264	2
TAP	19	0	3
TAP	19	48	3
TAP	19	96	7
TAP	19	144	7
TAP	19	192	1
TAP	19	240	2
TAP	19	264	2
TAP	19	336	3
TAP	20	0	4
TAP	20	48	4
TAP	20	96	5
TAP	20	144	5
TAP	20	192	6
TAP	20	240	7
TAP	20	288	0
BRK	20	336	1
HLD	21	0	6	96
TAP	21	96	5
HLD	21	192	1	72
TAP	21	264	2
HLD	21	336	6	144
TAP	22	0	5
TAP	22	96	5
STR	22	191	7
SCR	22	191	7	96	49	2
BRK	22	240	7
HLD	23	0	1	96
TAP	23	96	2
HLD	23	192	6	72
TAP	23	264	5
HLD	23	336	1	144
TAP	24	0	2
TAP	24	96	2
STR	24	192	0
SCL	24	192	0	96	48	5
BRK	24	240	0
TAP	25	0	5
TAP	25	0	7
TAP	25	96	4
TAP	25	96	6
TAP	25	192	0
TAP	25	192	2
TAP	25	264	1
TAP	25	264	3
TAP	25	336	4
TAP	25	336	5
TAP	26	0	2
TAP	26	0	3
TAP	26	96	1
TAP	26	96	4
STR	26	192	0
SI_	26	192	0	96	49	5
STR	26	192	7
SI_	26	192	7	96	48	2
TAP	26	240	0
TAP	26	240	7
TAP	27	0	5
TAP	27	48	6
TAP	27	96	7
TAP	27	144	0
TAP	27	192	1
TAP	27	240	2
TAP	27	288	3
TAP	27	336	4
TAP	28	0	0
TAP	28	0	1
TAP	28	48	2
TAP	28	48	7
TAP	28	96	3
TAP	28	96	6
TAP	28	144	4
TAP	28	144	5
TAP	28	192	6
TAP	28	192	7
TAP	28	240	0
TAP	28	240	5
TAP	28	288	1
TAP	28	288	4
BRK	28	336	2
BRK	28	336	3
TAP	29	0	5
STR	29	48	6
SI_	29	48	6	96	96	3
TAP	29	96	7
TAP	29	144	0
TAP	29	192	1
TAP	29	240	2
TAP	29	336	3
TAP	30	0	2
STR	30	48	1
SI_	30	48	1	96	96	4
TAP	30	96	0
TAP	30	144	7
TAP	30	192	6
TAP	30	240	5
TAP	30	336	5
TAP	31	0	6
STR	31	48	7
SCL	31	48	7	96	96	4
TAP	31	96	0
TAP	31	144	1
TAP	31	192	2
TAP	31	240	3
TAP	31	336	2
TAP	32	0	1
STR	32	48	0
SCR	32	48	0	96	96	3
TAP	32	96	7
TAP	32	144	6
TAP	32	192	5
TAP	32	240	4
TAP	32	336	7
TAP	33	0	6
TAP	33	0	7
TAP	33	48	6
TAP	33	96	5
TAP	33	96	6
TAP	33	144	5
TAP	33	192	4
TAP	33	192	5
TAP	33	240	4
TAP	33	336	3
TAP	34	0	2
TAP	34	0	3
TAP	34	48	2
TAP	34	96	1
TAP	34	96	2
TAP	34	144	1
TAP	34	192	0
TAP	34	192	1
TAP	34	240	0
TAP	34	336	0
TAP	35	0	0
TAP	35	0	1
TAP	35	48	1
TAP	35	96	1
TAP	35	96	2
TAP	35	144	2
TAP	35	192	2
TAP	35	192	3
TAP	35	240	3
TAP	35	336	6
TAP	36	0	5
TAP	36	0	6
TAP	36	48	5
TAP	36	96	4
TAP	36	96	5
TAP	36	144	0
TAP	36	192	0
TAP	36	192	1
TAP	36	240	1
TAP	36	288	1
TAP	36	288	2
BRK	36	336	2
HLD	37	0	7	96
HLD	37	96	5	96
HLD	37	192	0	72
HLD	37	264	1	72
TAP	37	336	2
HLD	38	0	0	96
HLD	38	96	2	96
HLD	38	192	7	72
HLD	38	264	6	72
TAP	38	336	5
HLD	39	0	6	96
HLD	39	96	4	96
HLD	39	192	1	72
HLD	39	264	2	72
TAP	39	336	3
HLD	40	0	1	96
HLD	40	96	3	96
HLD	40	192	6	72
HLD	40	264	5	72
BRK	40	336	4
STR	41	0	0
SCL	41	0	0	96	96	5
TAP	41	0	1
TAP	41	96	1
TAP	41	192	2
TAP	41	264	2
TAP	41	336	2
TAP	42	0	6
STR	42	0	7
SCR	42	0	7	96	96	2
TAP	42	96	6
TAP	42	192	5
TAP	42	264	5
TAP	42	336	5
STR	43	0	0
SCL	43	0	0	96	96	5
TAP	43	0	1
TAP	43	96	1
TAP	43	192	2
TAP	43	264	3
TAP	43	336	4
TAP	44	0	6
STR	44	0	7
SCR	44	0	7	96	96	2
TAP	44	96	6
TAP	44	192	5
TAP	44	264	4
TAP	44	336	3
BRK	45	0	2
BRK	45	0	5

T_REC_TAP	234
T_REC_BRK	11
T_REC_XTP	0
T_REC_HLD	22
T_REC_XHO	0
T_REC_STR	14
T_REC_BST	0
T_REC_XST	0
T_REC_TTP	0
T_REC_THO	0
T_REC_SLD	14
T_REC_ALL	295
T_NUM_TAP	248
T_NUM_BRK	11
T_NUM_HLD	22
T_NUM_SLD	14
T_NUM_ALL	295
T_JUDGE_TAP	259
T_JUDGE_HLD	46
T_JUDGE_SLD	14
T_JUDGE_ALL	319
TTM_EACHPAIRS	35
TTM_SCR_TAP	124000
TTM_SCR_BRK	28600
TTM_SCR_HLD	22000
TTM_SCR_SLD	21000
TTM_SCR_ALL	195600
TTM_SCR_S	188700
TTM_SCR_SS	194500
TTM_RAT_ACV	10056

