VERSION	0.00.00	1.03.00
FES_MODE	0
BPM_DEF	132.000	132.000	132.000	132.000
MET_DEF	4	4
RESOLUTION	384
CLK_DEF	384
COMPATIBLE_CODE	MA2

BPM	0	0	132.000
MET	0	0	4	4

TAP	5	0	0
TAP	5	96	0
TAP	5	192	1
TAP	5	288	1
TAP	6	0	2
TAP	6	96	2
TAP	6	192	3
TAP	6	288	3
TAP	7	0	4
TAP	7	96	4
TAP	7	192	5
TAP	7	288	5
TAP	8	0	6
TAP	8	96	6
TAP	8	192	7
TAP	8	288	7
TAP	9	0	0
TAP	9	48	0
TAP	9	96	0
TAP	9	192	1
TAP	9	240	1
TAP	9	288	1
TAP	10	0	2
TAP	10	48	2
TAP	10	96	2
TAP	10	192	3
TAP	10	240	3
TAP	10	288	3
TAP	11	0	4
TAP	11	96	5
TAP	11	192	6
TAP	11	288	7
HLD	12	0	0	288
TAP	13	0	0
TAP	13	96	1
TAP	13	192	0
TAP	13	288	0
TAP	13	288	7
TAP	14	0	7
TAP	14	96	6
TAP	14	192	7
TAP	14	288	0
TAP	14	288	7
TAP	15	0	1
TAP	15	96	2
TAP	15	192	3
TAP	15	288	1
TAP	15	288	2
TAP	16	0	0
TAP	16	96	7
TAP	16	192	6
TAP	16	288	0
TAP	16	288	7
TAP	17	0	6
TAP	17	96	5
TAP	17	192	4
TAP	17	288	5
TAP	17	288	6
TAP	18	0	7
TAP	18	96	0
TAP	18	192	1
TAP	18	288	0
TAP	18	288	7
TAP	19	0	1
TAP	19	96	2
TAP	19	192	3
TAP	19	288	4
TAP	19	288	5
TAP	20	0	6
TAP	20	96	7
TAP	20	192	0
TAP	20	288	1
TAP	20	288	2
HLD	21	0	0	288
TAP	21	96	7
TAP	21	192	6
TAP	21	288	7
HLD	22	0	0	288
TAP	22	96	1
TAP	22	192	2
TAP	22	288	1
HLD	23	0	7	288
TAP	23	96	6
TAP	23	192	5
TAP	23	288	6
HLD	24	0	7	288
TAP	24	96	0
TAP	24	192	1
BRK	24	288	0
HLD	25	0	1	288
TAP	25	96	2
TAP	25	192	3
TAP	25	288	4
HLD	26	0	1	288
TAP	26	96	0
TAP	26	192	7
TAP	26	288	6
HLD	27	0	5	288
TAP	27	96	4
TAP	27	192	3
TAP	27	288	4
TAP	28	0	5
TAP	28	0	6
TAP	28	96	0
TAP	28	96	7
TAP	28	192	1
TAP	28	192	2
BRK	28	288	0
BRK	28	288	7
HLD	29	0	1	96
TAP	29	96	2
TAP	29	192	1
TAP	29	264	1
HLD	30	0	7	96
TAP	30	96	6
TAP	30	192	7
TAP	30	264	7
HLD	31	0	0	96
TAP	31	96	1
TAP	31	192	0
TAP	31	264	0
TAP	32	0	1
TAP	32	96	3
TAP	32	192	5
BRK	32	288	7
HLD	33	0	6	96
TAP	33	96	5
TAP	33	192	6
TAP	33	264	6
HLD	34	0	0	96
TAP	34	96	1
TAP	34	192	0
TAP	34	264	0
HLD	35	0	7	96
TAP	35	96	6
TAP	35	192	7
TAP	35	264	7
TAP	36	0	0
TAP	36	96	2
TAP	36	192	4
TAP	36	288	6
TAP	36	288	7
STR	37	0	0
SCL	37	0	0	96	48	5
TAP	37	0	1
TAP	37	192	4
TAP	37	264	4
TAP	38	0	2
STR	38	0	3
SCR	38	0	3	96	48	6
TAP	38	192	7
TAP	38	264	7
TAP	39	0	6
STR	39	0	7
SCR	39	0	7	96	48	2
TAP	39	192	3
TAP	39	264	3
STR	40	0	4
SCL	40	0	4	96	48	1
TAP	40	0	5
TAP	40	192	0
TAP	40	264	0
TAP	41	0	7
TAP	41	96	6
TAP	41	192	7
TAP	41	288	0
TAP	41	288	7
TAP	42	0	0
TAP	42	96	1
TAP	42	192	0
TAP	42	288	0
TAP	42	288	7
TAP	43	0	7
TAP	43	96	5
TAP	43	192	3
TAP	43	288	0
TAP	43	288	1
TAP	44	0	2
TAP	44	96	4
TAP	44	192	6
STR	44	288	0
SI_	44	288	0	96	192	3

T_REC_TAP	154
T_REC_BRK	4
T_REC_XTP	0
T_REC_HLD	14
T_REC_XHO	0
T_REC_STR	5
T_REC_BST	0
T_REC_XST	0
T_REC_TTP	0
T_REC_THO	0
T_REC_SLD	5
T_REC_ALL	182
T_NUM_TAP	159
T_NUM_BRK	4
T_NUM_HLD	14
T_NUM_SLD	5
T_NUM_ALL	182
T_JUDGE_TAP	163
T_JUDGE_HLD	60
T_JUDGE_SLD	5
T_JUDGE_ALL	228
TTM_EACHPAIRS	20
TTM_SCR_TAP	79500
TTM_SCR_BRK	10400
TTM_SCR_HLD	14000
TTM_SCR_SLD	7500
TTM_SCR_ALL	111400
TTM_SCR_S	107700
TTM_SCR_SS	111000
TTM_RAT_ACV	10036

