VERSION	0.00.00	1.03.00
FES_MODE	0
BPM_DEF	132.000	132.000	132.000	132.000
MET_DEF	4	4
RESOLUTION	384
CLK_DEF	384
COMPATIBLE_CODE	MA2

BPM	0	0	132.000
MET	0	0	4	4

TAP	5	0	0
TAP	5	192	0
TAP	6	0	1
TAP	6	192	1
TAP	7	0	2
TAP	7	192	2
TAP	8	0	3
TAP	8	192	3
TAP	9	0	2
TAP	9	96	2
TAP	9	192	1
TAP	9	288	1
TAP	10	0	0
TAP	10	96	0
TAP	10	192	7
TAP	10	288	7
HLD	11	0	6	288
BRK	12	0	6
TAP	13	0	7
TAP	13	96	7
TAP	13	192	0
TAP	14	0	7
TAP	14	96	7
TAP	14	192	6
TAP	14	288	6
TAP	15	0	5
TAP	15	96	5
TAP	15	192	4
TAP	16	0	6
TAP	16	96	6
TAP	16	192	7
TAP	16	288	0
TAP	16	288	7
TAP	17	0	1
TAP	17	96	1
TAP	17	192	2
TAP	18	0	1
TAP	18	96	1
TAP	18	192	0
TAP	18	288	0
TAP	19	0	7
TAP	19	96	7
TAP	19	192	6
TAP	20	0	7
TAP	20	96	7
TAP	20	192	0
TAP	20	192	1
TAP	20	288	1
TAP	20	288	2
TAP	21	0	0
TAP	21	96	0
TAP	21	192	7
TAP	21	288	7
TAP	22	0	6
TAP	22	96	6
TAP	22	192	5
TAP	22	288	3
TAP	22	288	4
TAP	23	0	5
TAP	23	96	5
TAP	23	192	6
TAP	23	288	6
TAP	24	0	7
TAP	24	96	7
TAP	24	192	0
TAP	24	288	0
TAP	24	288	7
TAP	25	0	7
TAP	25	96	7
TAP	25	192	6
TAP	25	288	6
TAP	26	0	5
TAP	26	96	5
TAP	26	192	4
TAP	26	288	2
TAP	26	288	3
TAP	27	0	4
TAP	27	96	5
TAP	27	192	6
TAP	27	288	7
TAP	28	0	0
TAP	28	48	0
TAP	28	96	0
TAP	28	192	1
TAP	28	240	1
TAP	28	288	1
HLD	29	0	0	96
HLD	29	96	7	192
HLD	30	0	0	96
HLD	30	96	2	192
HLD	31	0	1	96
HLD	31	96	0	192
HLD	32	0	7	96
HLD	32	96	6	192
HLD	33	0	7	96
HLD	33	96	0	192
HLD	34	0	0	96
HLD	34	96	2	192
HLD	35	0	1	96
HLD	35	96	0	192
TAP	36	0	1
TAP	36	96	2
TAP	36	192	3
TAP	36	288	4
STR	37	0	5
SI_	37	0	5	96	96	2
STR	38	0	1
SI_	38	0	1	96	96	6
STR	39	0	7
SI_	39	0	7	96	96	4
STR	40	0	0
SI_	40	0	0	96	96	3
TAP	41	0	7
TAP	41	96	7
TAP	41	192	5
TAP	41	288	5
TAP	42	0	7
TAP	42	96	7
TAP	42	192	1
TAP	42	288	1
TAP	43	0	3
TAP	43	96	3
TAP	43	192	5
TAP	43	288	5
TAP	44	0	4
TAP	44	96	3
TAP	44	192	2
TAP	44	288	1
BRK	45	0	0

T_REC_TAP	104
T_REC_BRK	2
T_REC_XTP	0
T_REC_HLD	15
T_REC_XHO	0
T_REC_STR	4
T_REC_BST	0
T_REC_XST	0
T_REC_TTP	0
T_REC_THO	0
T_REC_SLD	4
T_REC_ALL	129
T_NUM_TAP	108
T_NUM_BRK	2
T_NUM_HLD	15
T_NUM_SLD	4
T_NUM_ALL	129
T_JUDGE_TAP	110
T_JUDGE_HLD	48
T_JUDGE_SLD	4
T_JUDGE_ALL	162
TTM_EACHPAIRS	6
TTM_SCR_TAP	54000
TTM_SCR_BRK	5200
TTM_SCR_HLD	15000
TTM_SCR_SLD	6000
TTM_SCR_ALL	80200
TTM_SCR_S	77600
TTM_SCR_SS	80000
TTM_RAT_ACV	10025

