VERSION	0.00.00	1.03.00
FES_MODE	0
BPM_DEF	130.000	130.000	130.000	130.000
MET_DEF	4	4
RESOLUTION	384
CLK_DEF	384
COMPATIBLE_CODE	MA2

BPM	0	0	130.000
MET	0	0	4	4

TAP	1	0	5
TAP	1	72	6
TAP	1	144	7
HLD	1	192	7	72
TAP	1	264	0
HLD	1	336	1	72
HLD	2	24	3	72
HLD	2	96	5	48
TAP	3	0	2
TAP	3	72	1
TAP	3	144	0
HLD	3	192	0	72
TAP	3	264	7
HLD	3	336	6	72
HLD	4	24	4	72
HLD	4	96	2	48
TAP	5	0	6
TAP	5	72	7
TAP	5	144	0
HLD	5	192	0	72
STR	5	264	1
SI_	5	264	1	96	48	6
STR	5	336	1
SI_	5	336	1	96	48	5
STR	6	24	1
SI_	6	24	1	96	48	4
TAP	7	0	3
TAP	7	72	2
TAP	7	144	1
HLD	7	192	1	72
STR	7	264	0
SI_	7	264	0	96	48	5
STR	7	336	0
SI_	7	336	0	96	48	4
STR	8	24	0
SI_	8	24	0	96	48	3
HLD	9	0	1	72
TAP	9	72	2
TAP	9	144	3
TAP	9	144	4
HLD	9	192	6	72
TAP	9	264	5
TAP	9	336	0
TAP	9	336	7
TAP	10	96	1
TAP	10	96	7
STR	10	192	1
SI_	10	192	1	96	48	4
STR	10	192	7
SI_	10	192	7	96	48	4
TAP	11	0	0
TAP	11	24	0
TAP	11	48	0
TAP	11	96	6
TAP	11	120	6
TAP	11	144	6
TAP	11	192	4
TAP	11	216	4
TAP	11	240	4
TAP	11	288	2
TAP	11	312	2
TAP	11	336	2
TAP	12	0	6
TAP	12	24	7
TAP	12	48	6
TAP	12	96	1
TAP	12	120	0
TAP	12	144	1
TAP	12	192	3
TAP	12	216	2
TAP	12	240	3
TAP	12	288	4
TAP	12	312	5
TAP	12	336	4
TAP	13	0	1
TAP	13	24	0
TAP	13	48	7
TAP	13	96	6
TAP	13	120	5
TAP	13	144	4
TAP	13	192	3
TAP	13	216	2
TAP	13	240	1
TAP	13	288	0
TAP	13	312	7
TAP	13	336	1
TAP	13	360	6
TAP	14	0	0
TAP	14	24	7
TAP	14	48	0
TAP	14	72	7
TAP	14	96	1
TAP	14	120	5
TAP	14	144	1
TAP	14	168	5
TAP	14	192	3
TAP	14	216	5
TAP	14	240	3
TAP	14	264	5
TAP	14	288	4
TAP	14	312	6
TAP	14	336	4
BRK	14	360	6
HLD	15	0	4	48
TAP	15	24	5
TAP	15	48	5
HLD	15	96	3	48
TAP	15	120	2
TAP	15	144	2
HLD	15	192	7	48
TAP	15	216	6
TAP	15	240	6
HLD	15	288	0	48
TAP	15	312	1
TAP	15	336	1
HLD	16	0	1	48
TAP	16	24	5
TAP	16	48	5
HLD	16	96	6	48
TAP	16	120	2
TAP	16	144	2
HLD	16	192	3	48
TAP	16	216	7
TAP	16	240	7
HLD	16	288	7	48
TAP	16	312	0
TAP	16	336	0
STR	17	0	0
SCL	17	0	0	96	96	5
STR	17	96	5
SCL	17	96	5	96	96	2
STR	17	192	2
SCL	17	192	2	96	96	7
STR	17	288	7
SCL	17	288	7	96	96	4
STR	18	0	4
SCL	18	0	4	96	96	1
STR	18	96	1
SCL	18	96	1	96	96	6
STR	18	192	6
SCL	18	192	6	96	96	3
HLD	19	0	7	96
TAP	19	48	6
HLD	19	96	0	96
TAP	19	144	1
HLD	19	192	7	96
TAP	19	240	6
HLD	19	288	0	96
TAP	19	336	1
HLD	20	0	4	96
TAP	20	48	5
HLD	20	96	3	96
TAP	20	144	2
HLD	20	192	4	96
TAP	20	240	5
HLD	20	288	3	96
TAP	20	336	2
STR	21	0	0
SI_	21	0	0	96	48	4
STR	21	48	0
SCL	21	48	0	96	48	5
TAP	21	96	0
TAP	21	144	0
STR	21	192	7
SI_	21	192	7	96	48	3
STR	21	240	7
SCR	21	240	7	96	48	2
TAP	21	288	7
TAP	21	336	7
BRK	22	0	7
BRK	22	96	0
HLD	23	0	0	96
TAP	23	48	1
HLD	23	96	2	95
TAP	23	144	3
HLD	23	192	4	96
TAP	23	240	5
HLD	23	288	6	96
TAP	23	336	7
HLD	24	0	7	96
TAP	24	48	6
HLD	24	96	5	96
TAP	24	144	4
HLD	24	192	3	96
TAP	24	240	2
HLD	24	288	1	96
TAP	24	336	0
STR	25	0	2
SI_	25	0	2	96	48	6
STR	25	48	2
SCL	25	48	2	96	48	7
TAP	25	96	2
TAP	25	144	2
STR	25	192	5
SI_	25	192	5	96	48	1
STR	25	240	5
SCR	25	240	5	96	48	0
TAP	25	288	5
TAP	25	336	5
STR	26	0	5
SCL	26	0	5	96	192	2
HLD	27	0	6	192
TAP	27	72	0
TAP	27	144	2
TAP	27	192	4
HLD	28	0	1	192
TAP	28	72	7
TAP	28	144	5
TAP	28	192	3
HLD	29	0	6	72
HLD	29	72	2	120
TAP	29	144	0
TAP	29	192	4
TAP	29	288	1
TAP	29	288	7
HLD	30	0	1	72
HLD	30	72	5	120
TAP	30	144	7
TAP	30	192	3
TAP	30	240	3
TAP	30	288	3
TAP	30	288	4
HLD	31	0	1	96
HLD	31	96	3	96
HLD	31	192	6	96
HLD	31	288	4	96
HLD	32	0	0	96
HLD	32	96	2	96
HLD	32	192	7	96
HLD	32	288	5	96
STR	33	0	6
SI_	33	0	6	96	96	1
STR	33	96	1
SI_	33	96	1	96	96	5
STR	33	192	5
SI_	33	192	5	96	96	2
STR	34	96	3
SI_	34	96	3	96	48	0
STR	34	144	0
SI_	34	144	0	96	48	5
STR	34	192	5
SI_	34	192	5	96	48	2
STR	34	240	2
SI_	34	240	2	96	48	6
TAP	35	0	1
TAP	35	24	5
TAP	35	48	1
TAP	35	96	6
TAP	35	120	2
TAP	35	144	6
TAP	35	192	3
TAP	35	216	7
TAP	35	240	3
TAP	35	288	0
TAP	35	312	4
TAP	35	336	0
TAP	36	0	3
TAP	36	24	7
TAP	36	48	3
TAP	36	96	6
TAP	36	120	2
TAP	36	144	6
TAP	36	192	1
TAP	36	216	5
TAP	36	240	1
TAP	36	288	4
TAP	36	312	0
TAP	36	336	4
TAP	37	0	7
TAP	37	24	7
TAP	37	48	7
TAP	37	96	5
TAP	37	120	5
TAP	37	144	5
TAP	37	192	3
TAP	37	216	3
TAP	37	240	3
TAP	37	288	1
TAP	37	312	2
TAP	37	336	1
TAP	37	360	2
TAP	38	0	6
TAP	38	24	0
TAP	38	48	6
TAP	38	72	0
TAP	38	96	6
TAP	38	120	2
TAP	38	144	6
TAP	38	168	2
TAP	38	192	6
TAP	38	216	4
TAP	38	240	6
TAP	38	264	4
TAP	38	288	6
TAP	38	312	0
TAP	38	336	2
BRK	38	360	4
HLD	39	0	0	48
TAP	39	24	1
TAP	39	48	1
HLD	39	96	3	48
TAP	39	120	2
TAP	39	144	2
HLD	39	192	7	48
TAP	39	216	6
TAP	39	240	6
HLD	39	288	5	48
TAP	39	312	4
TAP	39	336	4
HLD	40	0	0	48
TAP	40	24	1
TAP	40	48	1
HLD	40	96	7	48
TAP	40	120	6
TAP	40	144	6
HLD	40	192	3	48
TAP	40	216	2
TAP	40	240	2
HLD	40	288	4	48
TAP	40	312	5
TAP	40	336	5
STR	41	0	0
SI_	41	0	0	96	48	5
STR	41	96	6
SI_	41	96	6	96	48	3
STR	41	192	4
SI_	41	192	4	96	48	1
STR	41	288	2
SI_	41	288	2	96	48	7
STR	42	0	1
SCR	42	0	1	96	48	4
STR	42	96	0
SCL	42	96	0	96	48	5
STR	42	192	7
SCR	42	192	7	96	48	2
STR	42	288	6
SCL	42	288	6	96	288	3

T_REC_TAP	197
T_REC_BRK	4
T_REC_XTP	0
T_REC_HLD	58
T_REC_XHO	0
T_REC_STR	39
T_REC_BST	0
T_REC_XST	0
T_REC_TTP	0
T_REC_THO	0
T_REC_SLD	39
T_REC_ALL	337
T_NUM_TAP	236
T_NUM_BRK	4
T_NUM_HLD	58
T_NUM_SLD	39
T_NUM_ALL	337
T_JUDGE_TAP	240
T_JUDGE_HLD	104
T_JUDGE_SLD	39
T_JUDGE_ALL	383
TTM_EACHPAIRS	6
TTM_SCR_TAP	118000
TTM_SCR_BRK	10400
TTM_SCR_HLD	58000
TTM_SCR_SLD	58500
TTM_SCR_ALL	244900
TTM_SCR_S	237200
TTM_SCR_SS	244500
TTM_RAT_ACV	10016

