VERSION	0.00.00	1.03.00
FES_MODE	0
BPM_DEF	130.000	130.000	130.000	130.000
MET_DEF	4	4
RESOLUTION	384
CLK_DEF	384
COMPATIBLE_CODE	MA2

BPM	0	0	130.000
MET	0	0	4	4

TAP	1	0	5
TAP	1	72	7
TAP	1	144	0
TAP	1	192	2
TAP	1	264	0
TAP	1	336	7
TAP	2	96	3
TAP	2	192	4
TAP	2	288	3
TAP	3	0	1
TAP	3	72	3
TAP	3	144	4
TAP	3	192	6
TAP	3	264	4
TAP	3	336	3
TAP	4	96	7
TAP	4	192	0
BRK	4	264	0
TAP	5	0	2
TAP	5	72	0
TAP	5	144	7
TAP	5	192	5
TAP	5	264	7
TAP	5	336	0
TAP	6	96	4
TAP	6	192	3
TAP	6	288	4
TAP	7	0	1
TAP	7	48	3
TAP	7	72	3
TAP	7	144	4
TAP	7	192	6
TAP	7	264	4
TAP	7	336	3
TAP	8	96	6
TAP	8	192	1
BRK	8	288	6
HLD	10	96	4	96
HLD	10	192	2	96
BRK	10	288	0
HLD	11	0	6	192
TAP	11	96	7
STR	11	192	7
SCR	11	192	7	96	48	2
TAP	11	288	5
HLD	12	0	1	192
TAP	12	96	0
STR	12	192	0
SCL	12	192	0	96	48	5
TAP	12	288	2
HLD	13	0	1	96
STR	13	144	1
SI_	13	144	1	96	48	4
TAP	13	144	4
TAP	13	240	0
STR	13	336	3
SI_	13	336	3	96	48	7
TAP	13	336	7
TAP	14	48	4
TAP	14	144	0
STR	14	144	5
SI_	14	144	5	96	48	0
TAP	14	240	4
BRK	14	288	7
HLD	15	0	5	192
TAP	15	96	4
STR	15	192	4
SCL	15	192	4	96	48	1
TAP	15	288	6
HLD	16	0	2	192
TAP	16	96	3
STR	16	192	3
SCR	16	192	3	96	48	6
TAP	16	288	1
HLD	17	96	0	192
HLD	17	96	4	192
STR	17	336	0
SCR	17	336	0	96	96	3
STR	18	48	3
SCR	18	48	3	96	96	6
STR	18	144	6
SCR	18	144	6	96	96	1
STR	19	0	0
SI_	19	0	0	96	96	4
STR	19	192	6
SI_	19	192	6	96	96	3
STR	20	0	1
SI_	20	0	1	96	96	4
STR	20	192	7
SI_	20	192	7	96	96	3
STR	21	0	1
SI_	21	0	1	96	96	4
STR	21	192	0
SI_	21	192	0	96	96	3
STR	22	0	7
SI_	22	0	7	96	96	4
BRK	22	288	0
STR	23	0	0
SI_	23	0	0	96	48	4
STR	23	96	6
SI_	23	96	6	96	48	3
STR	23	192	1
SI_	23	192	1	96	48	4
STR	23	288	7
SI_	23	288	7	96	48	3
STR	24	0	1
SI_	24	0	1	96	48	4
STR	24	96	0
SI_	24	96	0	96	48	3
STR	24	192	7
SI_	24	192	7	96	48	4
STR	24	288	6
SI_	24	288	6	96	48	3
STR	25	0	0
SI_	25	0	0	96	48	4
STR	25	96	6
SI_	25	96	6	96	48	3
STR	25	192	1
SI_	25	192	1	96	48	4
STR	25	288	7
SI_	25	288	7	96	48	3
STR	26	0	1
SI_	26	0	1	96	48	4
STR	26	96	0
SI_	26	96	0	96	48	3
STR	26	192	7
SI_	26	192	7	96	48	4
TAP	27	0	5
TAP	27	24	6
TAP	27	48	5
TAP	27	72	6
TAP	27	96	5
TAP	27	144	7
STR	27	192	6
SCL	27	192	6	96	48	3
TAP	28	0	2
TAP	28	24	3
TAP	28	48	2
TAP	28	72	3
TAP	28	96	2
TAP	28	144	1
STR	28	192	1
SCR	28	192	1	96	48	4
TAP	29	0	1
TAP	29	24	0
TAP	29	48	1
TAP	29	72	0
TAP	29	96	1
TAP	29	144	2
STR	29	192	2
SCL	29	192	2	96	48	7
TAP	29	240	2
TAP	30	0	6
TAP	30	24	7
TAP	30	48	6
TAP	30	72	7
TAP	30	96	6
TAP	30	144	5
STR	30	192	5
SCR	30	192	5	96	48	0
TAP	30	240	5
TAP	31	0	1
TAP	31	24	2
TAP	31	48	1
TAP	31	72	2
TAP	31	96	1
TAP	31	144	0
TAP	31	168	7
STR	31	192	0
SCL	31	192	0	96	48	5
TAP	31	240	0
TAP	32	0	6
TAP	32	24	5
TAP	32	48	6
TAP	32	72	5
TAP	32	96	6
TAP	32	144	7
TAP	32	168	0
STR	32	192	7
SCR	32	192	7	96	48	2
TAP	32	240	7
TAP	33	0	2
TAP	33	24	4
TAP	33	48	2
TAP	33	72	4
TAP	33	96	2
TAP	33	144	6
TAP	33	168	7
STR	33	192	2
SCL	33	192	2	96	48	7
BRK	33	264	5
BRK	33	336	3
STR	34	96	5
SCR	34	96	5	96	48	0
STR	34	192	2
SCL	34	192	2	96	48	7
TAP	35	0	1
STR	35	0	4
SI_	35	0	4	96	48	1
TAP	35	96	5
STR	35	192	3
SI_	35	192	3	96	48	6
TAP	35	192	6
TAP	35	288	2
TAP	36	0	0
STR	36	0	5
SI_	36	0	5	96	48	0
TAP	36	96	4
STR	36	192	2
SI_	36	192	2	96	48	7
TAP	36	192	7
TAP	36	288	3
TAP	37	0	1
STR	37	0	4
SI_	37	0	4	96	48	1
TAP	37	48	4
TAP	37	96	5
STR	37	192	3
SI_	37	192	3	96	48	6
TAP	37	192	6
TAP	37	240	3
TAP	37	288	2
TAP	38	0	0
STR	38	0	5
SI_	38	0	5	96	48	0
TAP	38	48	5
TAP	38	96	4
STR	38	192	2
SI_	38	192	2	96	48	7
TAP	38	192	7
TAP	38	240	2
BRK	38	288	0
TAP	39	0	3
STR	39	0	6
SCL	39	0	6	96	48	3
TAP	39	48	6
TAP	39	96	7
TAP	39	144	7
STR	39	192	1
SCR	39	192	1	96	48	4
TAP	39	192	4
TAP	39	240	1
TAP	39	288	0
TAP	39	336	0
TAP	40	0	0
STR	40	0	5
SCR	40	0	5	96	48	0
TAP	40	48	5
TAP	40	96	4
TAP	40	144	4
STR	40	192	2
SCL	40	192	2	96	48	7
TAP	40	192	7
TAP	40	240	2
TAP	40	288	3
TAP	40	336	3
STR	41	0	5
SI_	41	0	5	96	96	0
HLD	41	96	5	192
STR	41	336	1
SI_	41	336	1	96	96	4
HLD	42	48	1	240
STR	42	288	7
SI_	42	288	7	96	192	3

T_REC_TAP	133
T_REC_BRK	8
T_REC_XTP	0
T_REC_HLD	11
T_REC_XHO	0
T_REC_STR	56
T_REC_BST	0
T_REC_XST	0
T_REC_TTP	0
T_REC_THO	0
T_REC_SLD	56
T_REC_ALL	264
T_NUM_TAP	189
T_NUM_BRK	8
T_NUM_HLD	11
T_NUM_SLD	56
T_NUM_ALL	264
T_JUDGE_TAP	197
T_JUDGE_HLD	39
T_JUDGE_SLD	56
T_JUDGE_ALL	292
TTM_EACHPAIRS	16
TTM_SCR_TAP	94500
TTM_SCR_BRK	20800
TTM_SCR_HLD	11000
TTM_SCR_SLD	84000
TTM_SCR_ALL	210300
TTM_SCR_S	203250
TTM_SCR_SS	209500
TTM_RAT_ACV	10038

