VERSION	0.00.00	1.03.00
FES_MODE	0
BPM_DEF	130.000	130.000	130.000	130.000
MET_DEF	4	4
RESOLUTION	384
CLK_DEF	384
COMPATIBLE_CODE	MA2

BPM	0	0	130.000
MET	0	0	4	4

TAP	1	0	1
TAP	1	192	3
HLD	2	0	5	288
TAP	3	0	4
TAP	3	192	2
HLD	4	0	0	288
TAP	5	0	7
TAP	5	96	7
TAP	5	192	6
TAP	5	288	6
TAP	6	0	5
TAP	6	96	5
TAP	6	192	4
TAP	6	288	4
TAP	7	0	6
TAP	7	96	6
TAP	7	192	7
TAP	7	288	7
TAP	8	0	0
TAP	8	96	0
TAP	8	192	1
STR	8	288	1
SI_	8	288	1	96	192	6
TAP	11	0	6
TAP	11	48	5
TAP	11	96	6
TAP	11	192	7
TAP	11	240	0
TAP	11	288	7
TAP	12	0	6
TAP	12	48	5
TAP	12	96	6
TAP	12	192	5
TAP	12	240	4
TAP	12	288	5
STR	13	0	6
SI_	13	0	6	96	48	1
STR	13	192	7
SI_	13	192	7	96	48	4
STR	14	0	0
SI_	14	0	0	96	48	3
STR	14	192	1
SI_	14	192	1	96	48	6
TAP	15	0	7
TAP	15	48	6
TAP	15	96	7
TAP	15	192	0
TAP	15	240	7
TAP	15	288	0
TAP	16	0	1
TAP	16	48	0
TAP	16	96	1
TAP	16	192	2
TAP	16	240	1
TAP	16	288	2
HLD	17	0	0	288
HLD	18	0	7	288
BRK	18	288	0
TAP	19	0	7
TAP	19	96	5
TAP	19	192	1
TAP	19	288	7
TAP	20	0	3
TAP	20	96	6
TAP	20	192	1
TAP	20	288	5
TAP	21	0	3
TAP	21	96	0
TAP	21	192	2
TAP	21	288	7
TAP	22	0	4
TAP	22	96	6
TAP	23	0	6
TAP	23	48	5
TAP	23	96	6
TAP	23	192	0
TAP	23	240	1
TAP	23	288	0
TAP	24	0	2
TAP	24	48	3
TAP	24	96	2
TAP	24	192	1
TAP	24	240	0
TAP	24	288	1
HLD	25	0	7	96
HLD	25	192	6	96
STR	26	0	5
SI_	26	0	5	96	96	2
BRK	26	288	1
TAP	27	0	0
TAP	27	72	7
HLD	27	144	7	144
TAP	28	0	0
TAP	28	72	1
HLD	28	144	1	144
TAP	29	0	2
TAP	29	72	3
HLD	29	144	3	144
TAP	30	0	2
TAP	30	72	1
HLD	30	144	1	144
TAP	31	0	0
TAP	31	96	0
TAP	31	96	7
TAP	31	192	7
TAP	31	288	6
TAP	31	288	7
TAP	32	0	5
TAP	32	96	3
TAP	32	96	4
TAP	32	192	6
TAP	32	288	0
TAP	32	288	7
HLD	33	0	1	288
HLD	34	0	2	288
BRK	34	288	0
TAP	35	0	7
TAP	35	48	5
TAP	35	96	3
TAP	35	192	4
TAP	35	240	6
TAP	35	288	0
TAP	36	0	6
TAP	36	48	4
TAP	36	96	2
TAP	36	192	3
TAP	36	240	5
TAP	36	288	7
STR	37	0	0
SI_	37	0	0	96	48	4
STR	37	192	1
SI_	37	192	1	96	48	5
STR	38	0	2
SI_	38	0	2	96	48	6
STR	38	192	3
SI_	38	192	3	96	48	7
TAP	39	0	6
TAP	39	48	4
TAP	39	96	2
TAP	39	192	3
TAP	39	240	5
TAP	39	288	7
TAP	40	0	1
TAP	40	48	3
TAP	40	96	5
TAP	40	192	4
TAP	40	240	2
TAP	40	288	0
STR	41	0	6
SI_	41	0	6	96	192	2
HLD	42	0	1	288
BRK	42	288	0
STR	43	0	7
SI_	43	0	7	96	48	4

T_REC_TAP	113
T_REC_BRK	4
T_REC_XTP	0
T_REC_HLD	13
T_REC_XHO	0
T_REC_STR	12
T_REC_BST	0
T_REC_XST	0
T_REC_TTP	0
T_REC_THO	0
T_REC_SLD	12
T_REC_ALL	154
T_NUM_TAP	125
T_NUM_BRK	4
T_NUM_HLD	13
T_NUM_SLD	12
T_NUM_ALL	154
T_JUDGE_TAP	129
T_JUDGE_HLD	58
T_JUDGE_SLD	12
T_JUDGE_ALL	199
TTM_EACHPAIRS	4
TTM_SCR_TAP	62500
TTM_SCR_BRK	10400
TTM_SCR_HLD	13000
TTM_SCR_SLD	18000
TTM_SCR_ALL	103900
TTM_SCR_S	100400
TTM_SCR_SS	103500
TTM_RAT_ACV	10038

