VERSION	0.00.00	1.03.00
FES_MODE	0
BPM_DEF	130.000	130.000	130.000	130.000
MET_DEF	4	4
RESOLUTION	384
CLK_DEF	384
COMPATIBLE_CODE	MA2

BPM	0	0	130.000
MET	0	0	4	4

TAP	1	96	2
TAP	1	288	2
TAP	2	96	5
TAP	2	288	5
TAP	3	96	2
TAP	3	288	2
TAP	4	96	5
TAP	4	288	5
TAP	5	96	1
TAP	5	288	1
TAP	6	96	6
TAP	6	288	6
TAP	7	96	0
TAP	7	288	0
TAP	8	96	7
TAP	8	288	7
HLD	9	0	6	672
TAP	11	0	6
TAP	11	96	6
TAP	11	192	5
TAP	11	288	5
TAP	12	0	6
TAP	12	96	7
TAP	12	192	0
TAP	12	288	1
TAP	13	0	2
TAP	13	96	2
TAP	13	192	3
TAP	13	288	3
TAP	14	0	2
TAP	14	96	2
TAP	14	192	1
TAP	14	288	1
TAP	15	0	7
TAP	15	96	7
TAP	15	192	6
TAP	15	288	6
TAP	16	0	5
TAP	16	96	5
TAP	16	192	4
TAP	16	288	4
STR	17	0	3
SI_	17	0	3	96	96	0
STR	18	0	7
SI_	18	0	7	96	96	4
HLD	19	0	0	96
HLD	19	192	1	96
HLD	20	0	5	96
HLD	20	192	4	96
HLD	21	0	3	96
HLD	21	192	2	96
HLD	22	0	6	96
TAP	23	0	0
TAP	23	96	0
TAP	23	192	6
TAP	23	288	6
TAP	24	0	2
TAP	24	96	2
TAP	24	192	4
TAP	24	288	4
TAP	25	0	3
TAP	25	96	3
TAP	25	192	5
TAP	25	288	5
TAP	26	0	4
TAP	26	96	3
TAP	26	192	2
BRK	26	288	1
HLD	27	0	0	192
STR	27	288	7
SI_	27	288	7	96	96	4
TAP	29	0	0
HLD	29	96	1	192
TAP	30	0	6
HLD	30	96	5	192
TAP	31	0	4
TAP	31	96	4
TAP	31	192	2
TAP	31	288	2
TAP	32	0	4
TAP	32	96	4
TAP	32	192	6
TAP	32	288	6
HLD	33	0	0	288
HLD	34	0	1	192
BRK	34	288	1
TAP	35	0	0
TAP	35	96	0
TAP	35	96	7
TAP	35	192	7
TAP	35	288	6
TAP	35	288	7
TAP	36	0	7
TAP	36	96	0
TAP	36	96	7
TAP	36	192	0
TAP	36	288	0
TAP	36	288	1
STR	37	0	0
SI_	37	0	0	96	96	4
TAP	39	0	3
TAP	39	96	2
TAP	39	96	3
TAP	39	192	3
TAP	39	288	3
TAP	39	288	4
TAP	40	0	4
TAP	40	96	4
TAP	40	96	5
TAP	40	192	4
TAP	40	288	3
TAP	40	288	4
TAP	41	0	2
HLD	41	96	1	192
HLD	42	0	7	192
STR	42	288	6
SI_	42	288	6	96	192	2

T_REC_TAP	90
T_REC_BRK	2
T_REC_XTP	0
T_REC_HLD	15
T_REC_XHO	0
T_REC_STR	5
T_REC_BST	0
T_REC_XST	0
T_REC_TTP	0
T_REC_THO	0
T_REC_SLD	5
T_REC_ALL	117
T_NUM_TAP	95
T_NUM_BRK	2
T_NUM_HLD	15
T_NUM_SLD	5
T_NUM_ALL	117
T_JUDGE_TAP	97
T_JUDGE_HLD	58
T_JUDGE_SLD	5
T_JUDGE_ALL	160
TTM_EACHPAIRS	8
TTM_SCR_TAP	47500
TTM_SCR_BRK	5200
TTM_SCR_HLD	15000
TTM_SCR_SLD	7500
TTM_SCR_ALL	75200
TTM_SCR_S	72750
TTM_SCR_SS	75000
TTM_RAT_ACV	10026

