VERSION	0.00.00	1.03.00
FES_MODE	0
BPM_DEF	150.000	150.000	150.000	150.000
MET_DEF	4	4
RESOLUTION	384
CLK_DEF	384
COMPATIBLE_CODE	MA2

BPM	0	0	150.000
MET	0	0	4	4

STR	2	0	0
SCL	2	0	0	96	480	5
STR	2	0	4
SCL	2	0	4	96	480	1
STR	3	288	1
SCR	3	288	1	96	192	4
STR	3	288	5
SCR	3	288	5	96	192	0
STR	4	288	0
SCL	4	288	0	96	96	5
STR	4	288	4
SCL	4	288	4	96	96	1
STR	5	192	0
SCL	5	192	0	96	48	5
TAP	6	0	7
TAP	6	96	7
TAP	6	192	2
TAP	6	192	6
TAP	6	288	6
TAP	7	0	7
TAP	7	96	7
TAP	7	192	2
TAP	7	192	6
TAP	7	288	6
TAP	8	0	0
TAP	8	0	4
TAP	8	96	0
TAP	8	192	1
TAP	8	192	5
TAP	8	288	1
TAP	9	0	0
TAP	9	96	0
TAP	9	144	4
TAP	9	192	1
TAP	9	192	5
TAP	9	240	4
TAP	9	288	1
TAP	10	0	1
HLD	10	0	4	288
TAP	10	96	1
TAP	10	192	0
TAP	10	288	0
STR	11	0	4
SI_	11	0	4	96	192	1
TAP	11	0	7
TAP	11	96	7
TAP	11	192	6
TAP	11	288	6
HLD	12	0	3	96
HLD	12	0	4	96
STR	12	192	3
SCR	12	192	3	96	240	6
STR	12	192	4
SI_	12	192	4	96	240	0
STR	13	192	0
SI_	13	192	0	96	48	3
STR	13	192	6
SI_	13	192	6	96	48	3
HLD	14	0	3	96
HLD	14	96	7	96
STR	14	192	0
SI_	14	192	0	96	48	5
TAP	14	216	0
STR	14	240	5
SI_	14	240	5	96	48	2
TAP	14	264	5
HLD	15	0	1	96
HLD	15	96	3	96
STR	15	192	7
SI_	15	192	7	96	48	2
TAP	15	216	7
STR	15	240	2
SI_	15	240	2	96	48	5
TAP	15	264	2
STR	16	0	4
SCL	16	0	4	96	96	1
STR	16	96	1
SCL	16	96	1	96	96	6
STR	16	192	6
SCL	16	192	6	96	96	3
BRK	16	288	3
HLD	17	0	2	96
TAP	17	96	4
TAP	17	144	3
TAP	17	144	4
TAP	17	192	5
TAP	17	240	6
TAP	17	288	2
TAP	17	312	3
TAP	17	336	4
TAP	17	360	3
HLD	18	0	5	96
HLD	18	96	1	96
STR	18	192	7
SI_	18	192	7	96	48	4
TAP	18	216	7
STR	18	240	4
SI_	18	240	4	96	48	1
TAP	18	264	4
HLD	19	0	2	96
HLD	19	96	6	96
STR	19	192	0
SI_	19	192	0	96	48	3
TAP	19	216	0
STR	19	240	3
SI_	19	240	3	96	48	6
TAP	19	264	3
STR	20	0	0
SCL	20	0	0	96	48	5
HLD	20	96	3	96
STR	20	192	4
SCL	20	192	4	96	48	1
HLD	20	288	7	96
BRK	21	0	0
TAP	21	192	7
TAP	21	224	6
TAP	21	256	5
TAP	21	288	6
TAP	21	320	7
TAP	21	352	0
HLD	22	0	6	96
HLD	22	96	4	96
STR	22	192	5
SI_	22	192	5	96	48	2
TAP	22	216	5
STR	22	240	2
SI_	22	240	2	96	48	7
TAP	22	264	2
HLD	23	0	4	96
HLD	23	96	1	96
STR	23	192	2
SI_	23	192	2	96	48	5
TAP	23	216	2
STR	23	240	5
SI_	23	240	5	96	48	0
TAP	23	264	5
STR	24	0	3
SCR	24	0	3	96	96	6
STR	24	96	6
SCR	24	96	6	96	96	1
STR	24	192	1
SCR	24	192	1	96	96	4
BRK	24	288	4
HLD	25	0	5	96
TAP	25	96	3
TAP	25	144	3
TAP	25	144	4
TAP	25	192	2
TAP	25	240	1
TAP	25	288	3
TAP	25	312	4
TAP	25	336	5
TAP	25	360	4
HLD	26	0	2	96
HLD	26	96	4	96
STR	26	192	0
SCL	26	192	0	96	48	5
TAP	26	216	0
STR	26	240	5
SI_	26	240	5	96	48	2
TAP	26	264	5
HLD	27	0	6	96
HLD	27	96	4	96
STR	27	192	7
SCR	27	192	7	96	48	2
TAP	27	216	7
STR	27	240	2
SI_	27	240	2	96	48	5
TAP	27	264	2
STR	28	0	4
SI_	28	0	4	96	48	0
STR	28	192	1
SCR	28	192	1	96	48	4
STR	28	192	7
SCL	28	192	7	96	48	4
TAP	29	240	3
TAP	29	288	4
TAP	29	312	3
TAP	29	360	4
STR	30	0	5
SCR	30	0	5	96	48	0
STR	30	144	1
SI_	30	144	1	96	48	6
STR	30	288	7
SCR	30	288	7	96	48	2
TAP	31	48	3
STR	31	96	3
SI_	31	96	3	96	48	0
STR	31	144	3
SI_	31	144	3	96	48	7
STR	31	192	3
SI_	31	192	3	96	48	6
STR	31	240	3
SI_	31	240	3	96	48	0
TAP	32	0	7
TAP	32	24	6
TAP	32	48	7
TAP	32	72	6
TAP	32	96	7
TAP	32	120	6
TAP	32	144	7
TAP	32	168	0
TAP	32	192	7
TAP	32	216	0
TAP	32	240	7
TAP	32	264	0
TAP	32	288	1
TAP	32	312	0
TAP	32	336	1
TAP	32	360	0
STR	33	0	1
SI_	33	0	1	96	48	4
STR	33	144	6
SI_	33	144	6	96	48	3
BRK	33	288	4
HLD	34	0	7	96
TAP	34	96	0
HLD	34	144	5	96
TAP	34	240	1
STR	34	288	1
SCL	34	288	1	96	48	6
TAP	35	48	4
STR	35	96	4
SI_	35	96	4	96	48	7
STR	35	144	4
SI_	35	144	4	96	48	0
STR	35	192	4
SI_	35	192	4	96	48	1
STR	35	240	4
SI_	35	240	4	96	48	7
TAP	36	0	1
TAP	36	48	0
TAP	36	96	7
TAP	36	144	6
TAP	36	192	7
TAP	36	224	4
TAP	36	256	0
TAP	36	288	3
TAP	36	320	1
TAP	36	352	2
TAP	37	0	0
TAP	37	0	6
TAP	37	72	2
TAP	37	72	7
TAP	37	144	1
TAP	37	144	4
STR	37	288	4
SCR	37	288	4	96	48	7
TAP	38	96	7
TAP	38	144	6
TAP	38	192	5
TAP	38	240	5
TAP	38	264	4
TAP	38	336	2
TAP	38	360	3
HLD	39	0	2	96
TAP	39	96	1
TAP	39	144	1
TAP	39	192	2
TAP	39	240	2
TAP	39	264	3
TAP	39	312	3
TAP	39	336	4
HLD	40	0	5	96
TAP	40	96	4
TAP	40	144	4
TAP	40	192	4
TAP	40	216	3
TAP	40	264	3
TAP	40	312	3
TAP	40	336	2
HLD	41	0	2	96
TAP	41	96	3
STR	41	144	3
SCR	41	144	3	96	48	6
TAP	41	192	3
TAP	41	312	1
TAP	41	336	0
TAP	41	360	1
STR	42	0	0
SI_	42	0	0	96	48	4
STR	42	192	3
SCR	42	192	3	96	48	6
STR	42	192	7
SCR	42	192	7	96	48	2
STR	43	0	1
SCL	43	0	1	96	96	6
STR	43	96	6
SI_	43	96	6	96	96	2
STR	43	192	2
SCR	43	192	2	96	96	5
TAP	44	0	7
TAP	44	48	7
TAP	44	96	7
HLD	44	144	7	240
STR	44	192	0
SI_	44	192	0	96	48	4
TAP	44	224	0
TAP	44	256	0
STR	45	0	5
SCL	45	0	5	96	96	2
STR	45	96	2
SI_	45	96	2	96	96	6
STR	45	192	6
SCR	45	192	6	96	96	1
HLD	46	0	2	96
HLD	46	96	0	96
STR	46	192	1
SI_	46	192	1	96	48	5
TAP	46	216	1
STR	46	240	5
SCL	46	240	5	96	48	2
TAP	46	264	5
HLD	47	0	7	96
HLD	47	96	5	96
STR	47	192	6
SI_	47	192	6	96	48	2
TAP	47	216	6
STR	47	240	2
SCR	47	240	2	96	48	5
TAP	47	264	2
HLD	48	0	6	96
HLD	48	96	7	96
TAP	48	192	0
TAP	49	144	4
TAP	49	168	3
TAP	49	192	3
TAP	49	192	4
STR	49	240	3
SCR	49	240	3	96	528	6
STR	49	240	7
SCR	49	240	7	96	528	2

T_REC_TAP	151
T_REC_BRK	4
T_REC_XTP	0
T_REC_HLD	35
T_REC_XHO	0
T_REC_STR	71
T_REC_BST	0
T_REC_XST	0
T_REC_TTP	0
T_REC_THO	0
T_REC_SLD	71
T_REC_ALL	332
T_NUM_TAP	222
T_NUM_BRK	4
T_NUM_HLD	35
T_NUM_SLD	71
T_NUM_ALL	332
T_JUDGE_TAP	226
T_JUDGE_HLD	77
T_JUDGE_SLD	71
T_JUDGE_ALL	374
TTM_EACHPAIRS	22
TTM_SCR_TAP	111000
TTM_SCR_BRK	10400
TTM_SCR_HLD	35000
TTM_SCR_SLD	106500
TTM_SCR_ALL	262900
TTM_SCR_S	254650
TTM_SCR_SS	262500
TTM_RAT_ACV	10015

