VERSION	0.00.00	1.03.00
FES_MODE	0
BPM_DEF	150.000	150.000	150.000	150.000
MET_DEF	4	4
RESOLUTION	384
CLK_DEF	384
COMPATIBLE_CODE	MA2

BPM	0	0	150.000
MET	0	0	4	4

TAP	5	192	3
TAP	5	192	4
BRK	5	288	0
TAP	6	0	7
TAP	6	144	2
TAP	6	192	6
TAP	6	336	5
TAP	7	0	1
TAP	7	144	2
TAP	7	192	6
TAP	7	336	5
TAP	8	0	1
TAP	8	72	6
TAP	8	144	5
TAP	8	192	1
TAP	8	336	2
TAP	9	0	6
TAP	9	72	6
TAP	9	144	5
TAP	9	192	1
TAP	10	0	5
TAP	10	0	6
TAP	10	72	5
TAP	10	144	1
TAP	10	192	1
TAP	10	192	2
TAP	11	0	1
TAP	11	0	2
TAP	11	72	5
TAP	11	144	1
TAP	11	192	5
TAP	11	192	6
HLD	12	0	1	192
HLD	12	192	5	192
HLD	13	0	0	192
TAP	13	192	3
TAP	13	288	4
TAP	13	288	7
TAP	14	0	0
TAP	14	0	3
TAP	14	96	0
TAP	14	96	3
TAP	14	192	1
TAP	14	216	1
TAP	14	240	2
TAP	14	264	1
TAP	15	0	4
TAP	15	0	7
TAP	15	96	4
TAP	15	96	7
TAP	15	192	5
TAP	15	216	5
TAP	15	240	6
TAP	15	264	5
STR	16	0	1
SI_	16	0	1	96	96	6
TAP	16	192	7
TAP	16	240	0
TAP	16	288	1
STR	17	0	5
SI_	17	0	5	96	96	2
TAP	17	192	3
TAP	17	240	4
TAP	17	288	5
TAP	17	336	6
TAP	18	0	4
TAP	18	0	7
TAP	18	96	4
TAP	18	96	7
TAP	18	192	6
TAP	18	216	6
TAP	18	240	5
TAP	18	264	6
TAP	19	0	0
TAP	19	0	3
TAP	19	96	0
TAP	19	96	3
TAP	19	192	2
TAP	19	216	2
TAP	19	240	1
TAP	19	264	2
STR	20	0	4
SI_	20	0	4	96	48	1
TAP	20	96	0
STR	20	192	3
SI_	20	192	3	96	48	6
TAP	20	288	7
TAP	21	0	0
TAP	21	288	0
TAP	21	288	7
TAP	22	0	0
TAP	22	0	1
TAP	22	96	0
TAP	22	96	1
TAP	22	192	7
TAP	22	216	7
TAP	22	240	0
TAP	22	264	6
TAP	23	0	6
TAP	23	0	7
TAP	23	96	6
TAP	23	96	7
TAP	23	192	0
TAP	23	216	0
TAP	23	240	1
TAP	23	264	7
STR	24	0	0
SI_	24	0	0	96	192	5
STR	24	96	1
SI_	24	96	1	96	96	4
TAP	25	0	7
TAP	25	72	6
TAP	25	96	7
TAP	25	168	6
TAP	25	192	7
TAP	25	240	0
TAP	25	288	1
TAP	25	336	2
TAP	26	0	3
TAP	26	0	4
TAP	26	96	3
TAP	26	96	4
TAP	26	192	2
TAP	26	216	2
TAP	26	240	1
TAP	26	264	3
TAP	27	0	1
TAP	27	0	2
TAP	27	96	1
TAP	27	96	2
TAP	27	192	4
TAP	27	216	4
TAP	27	240	3
TAP	27	264	5
STR	28	0	0
SI_	28	0	0	96	48	5
TAP	28	96	4
STR	28	192	7
SI_	28	192	7	96	48	2
TAP	28	288	3
TAP	29	0	4
TAP	29	240	7
TAP	29	264	7
BRK	29	288	0
TAP	30	0	7
TAP	30	48	1
TAP	30	96	2
TAP	30	144	7
TAP	30	192	2
TAP	30	240	1
TAP	30	288	7
TAP	30	336	1
TAP	31	0	2
TAP	31	48	7
TAP	31	96	2
TAP	31	144	1
TAP	31	192	7
TAP	31	240	2
TAP	31	288	1
TAP	31	336	2
TAP	32	0	0
TAP	32	48	6
TAP	32	96	5
TAP	32	144	0
TAP	32	192	5
TAP	32	240	6
TAP	32	288	0
TAP	32	336	6
TAP	33	0	5
TAP	33	48	0
TAP	33	96	4
TAP	33	144	2
TAP	33	192	7
TAP	33	240	3
TAP	33	288	0
TAP	34	0	6
TAP	34	48	4
TAP	34	96	3
TAP	34	144	6
TAP	34	192	3
TAP	34	240	4
TAP	34	288	6
TAP	34	336	4
TAP	35	0	3
TAP	35	48	6
TAP	35	96	3
TAP	35	144	4
TAP	35	192	6
TAP	35	240	3
TAP	35	288	4
TAP	35	336	3
TAP	36	0	1
TAP	36	48	3
TAP	36	96	4
TAP	36	144	1
TAP	36	192	4
TAP	36	240	3
TAP	36	288	1
TAP	36	336	3
TAP	37	0	1
TAP	37	72	1
TAP	37	144	1
TAP	37	216	3
TAP	37	240	4
TAP	37	288	6
HLD	38	0	7	72
TAP	38	96	7
TAP	38	144	7
TAP	38	192	7
TAP	38	264	7
TAP	38	336	7
TAP	38	360	7
HLD	39	0	0	72
TAP	39	96	0
TAP	39	144	0
TAP	39	192	0
TAP	39	264	0
TAP	39	336	6
HLD	40	0	6	72
TAP	40	96	6
TAP	40	144	6
TAP	40	192	0
TAP	40	216	0
TAP	40	264	0
TAP	40	336	0
HLD	41	0	1	72
TAP	41	96	1
TAP	41	144	1
TAP	41	192	7
TAP	41	216	7
TAP	41	264	7
TAP	41	312	7
TAP	41	336	7
TAP	42	0	0
TAP	42	48	5
TAP	42	96	7
TAP	42	144	2
TAP	42	192	0
TAP	42	240	7
TAP	42	288	0
TAP	42	336	1
TAP	43	0	7
TAP	43	48	2
TAP	43	96	0
TAP	43	144	5
TAP	43	192	7
TAP	43	240	0
TAP	43	288	7
TAP	43	336	6
TAP	44	0	1
TAP	44	48	5
TAP	44	96	6
TAP	44	144	2
TAP	44	192	1
TAP	44	240	2
TAP	44	288	6
TAP	44	336	5
TAP	45	0	7
TAP	45	72	0
TAP	45	96	7
TAP	45	168	0
TAP	45	192	7
TAP	45	264	0
TAP	45	288	7
TAP	45	336	4
TAP	46	0	2
TAP	46	72	3
TAP	46	144	4
TAP	46	192	6
TAP	46	216	6
TAP	46	240	5
TAP	46	264	6
TAP	47	0	5
TAP	47	72	4
TAP	47	144	3
TAP	47	192	1
TAP	47	216	1
TAP	47	240	2
TAP	47	264	1
TAP	48	0	5
TAP	48	24	5
TAP	48	48	4
TAP	48	72	5
TAP	48	192	2
TAP	48	216	2
TAP	48	240	3
TAP	48	264	2
TAP	49	0	4
TAP	49	24	4
TAP	49	48	3
TAP	49	72	4
TAP	49	96	2
TAP	49	120	2
TAP	49	144	3
TAP	49	168	2
TAP	49	192	5
TAP	49	216	5
TAP	49	240	4
TAP	49	264	5
STR	49	288	3
SI_	49	288	3	96	384	0

T_REC_TAP	274
T_REC_BRK	2
T_REC_XTP	0
T_REC_HLD	7
T_REC_XHO	0
T_REC_STR	9
T_REC_BST	0
T_REC_XST	0
T_REC_TTP	0
T_REC_THO	0
T_REC_SLD	9
T_REC_ALL	301
T_NUM_TAP	283
T_NUM_BRK	2
T_NUM_HLD	7
T_NUM_SLD	9
T_NUM_ALL	301
T_JUDGE_TAP	285
T_JUDGE_HLD	20
T_JUDGE_SLD	9
T_JUDGE_ALL	314
TTM_EACHPAIRS	23
TTM_SCR_TAP	141500
TTM_SCR_BRK	5200
TTM_SCR_HLD	7000
TTM_SCR_SLD	13500
TTM_SCR_ALL	167200
TTM_SCR_S	162000
TTM_SCR_SS	167000
TTM_RAT_ACV	10011

