VERSION	0.00.00	1.03.00
FES_MODE	0
BPM_DEF	150.000	150.000	150.000	150.000
MET_DEF	4	4
RESOLUTION	384
CLK_DEF	384
COMPATIBLE_CODE	MA2

BPM	0	0	150.000
MET	0	0	4	4

TAP	6	0	6
TAP	6	192	5
HLD	7	0	4	288
TAP	8	0	6
TAP	8	192	7
HLD	9	0	0	288
TAP	10	0	7
TAP	10	96	7
TAP	10	192	7
TAP	11	0	6
TAP	11	96	6
TAP	11	192	6
TAP	12	0	0
TAP	12	0	7
TAP	12	192	0
TAP	12	192	1
TAP	13	0	1
TAP	13	0	2
TAP	13	192	0
BRK	13	288	0
BRK	13	288	7
TAP	14	0	6
TAP	14	96	5
TAP	14	192	6
TAP	14	240	7
TAP	14	288	0
TAP	14	288	7
TAP	15	0	1
TAP	15	96	2
TAP	15	192	3
TAP	15	240	4
TAP	15	288	4
TAP	15	288	5
HLD	16	0	3	288
TAP	16	96	2
TAP	16	192	1
TAP	16	288	0
HLD	17	0	7	288
TAP	17	96	6
TAP	17	192	5
TAP	17	288	4
TAP	18	0	3
TAP	18	96	4
TAP	18	192	5
TAP	18	240	6
TAP	18	288	6
TAP	18	288	7
TAP	19	0	5
TAP	19	96	4
TAP	19	192	3
TAP	19	240	2
TAP	19	288	1
TAP	19	288	2
HLD	20	0	3	193
TAP	20	96	4
HLD	20	192	5	193
TAP	20	288	6
HLD	21	0	7	192
BRK	21	288	0
BRK	21	288	7
TAP	22	0	1
TAP	22	96	2
TAP	22	192	1
TAP	22	240	0
TAP	22	288	0
TAP	22	288	7
TAP	23	0	6
TAP	23	96	5
TAP	23	192	4
TAP	23	240	3
TAP	23	288	2
TAP	23	288	3
STR	24	0	4
SI_	24	0	4	96	96	7
STR	25	0	0
SI_	25	0	0	96	96	3
BRK	25	288	7
TAP	26	0	0
TAP	26	96	1
TAP	26	192	2
TAP	26	240	3
TAP	26	288	3
TAP	26	288	4
TAP	27	0	2
TAP	27	96	1
TAP	27	192	0
TAP	27	240	7
TAP	27	288	6
TAP	27	288	7
STR	28	0	0
SI_	28	0	0	96	96	3
TAP	28	288	7
BRK	29	0	7
TAP	30	0	0
TAP	30	96	0
TAP	30	96	1
TAP	30	192	2
TAP	30	288	2
TAP	30	288	3
TAP	31	0	1
TAP	31	96	0
TAP	31	96	1
TAP	31	192	7
TAP	31	288	6
TAP	31	288	7
HLD	32	0	0	192
HLD	32	192	1	192
HLD	33	0	2	96
TAP	33	96	3
TAP	33	192	5
BRK	33	288	7
TAP	34	0	7
TAP	34	96	6
TAP	34	96	7
TAP	34	192	5
TAP	34	288	4
TAP	34	288	5
TAP	35	0	6
TAP	35	96	6
TAP	35	96	7
TAP	35	192	0
TAP	35	288	0
TAP	35	288	1
HLD	36	0	7	192
HLD	36	192	6	96
TAP	36	288	5
HLD	37	0	3	192
HLD	37	0	4	192
BRK	37	288	6
STR	38	0	0
SI_	38	0	0	96	96	3
TAP	38	288	7
STR	39	0	6
SI_	39	0	6	96	96	1
TAP	39	288	2
STR	40	0	3
SI_	40	0	3	96	96	0
TAP	40	288	7
BRK	41	0	7
STR	42	0	7
SI_	42	0	7	96	96	4
TAP	42	288	0
STR	43	0	1
SI_	43	0	1	96	96	6
TAP	43	288	5
STR	44	0	4
SI_	44	0	4	96	96	7
HLD	45	0	0	288
STR	46	0	1
SCR	46	0	1	96	96	4
HLD	47	0	6	288
STR	48	0	5
SI_	48	0	5	96	96	0
STR	49	0	2
SI_	49	0	2	96	96	7
BRK	50	0	0

T_REC_TAP	106
T_REC_BRK	10
T_REC_XTP	0
T_REC_HLD	16
T_REC_XHO	0
T_REC_STR	12
T_REC_BST	0
T_REC_XST	0
T_REC_TTP	0
T_REC_THO	0
T_REC_SLD	12
T_REC_ALL	156
T_NUM_TAP	118
T_NUM_BRK	10
T_NUM_HLD	16
T_NUM_SLD	12
T_NUM_ALL	156
T_JUDGE_TAP	128
T_JUDGE_HLD	74
T_JUDGE_SLD	12
T_JUDGE_ALL	214
TTM_EACHPAIRS	22
TTM_SCR_TAP	59000
TTM_SCR_BRK	26000
TTM_SCR_HLD	16000
TTM_SCR_SLD	18000
TTM_SCR_ALL	119000
TTM_SCR_S	114500
TTM_SCR_SS	118000
TTM_RAT_ACV	10084

