VERSION	0.00.00	1.03.00
FES_MODE	0
BPM_DEF	150.000	150.000	150.000	150.000
MET_DEF	4	4
RESOLUTION	384
CLK_DEF	384
COMPATIBLE_CODE	MA2

BPM	0	0	150.000
MET	0	0	4	4

TAP	6	0	1
TAP	6	192	2
TAP	7	0	3
TAP	8	0	1
TAP	8	192	0
TAP	9	0	7
TAP	10	0	0
TAP	10	192	1
TAP	11	0	2
TAP	11	192	1
TAP	12	0	0
TAP	12	0	7
TAP	12	192	0
TAP	12	192	7
TAP	13	0	6
TAP	13	0	7
TAP	13	192	0
BRK	13	288	0
HLD	14	0	1	96
TAP	14	192	1
TAP	14	288	1
HLD	15	0	2	96
TAP	15	192	2
TAP	15	288	2
STR	16	0	1
SI_	16	0	1	96	96	6
HLD	17	0	6	288
HLD	18	0	5	96
TAP	18	192	5
TAP	18	288	5
HLD	19	0	4	96
TAP	19	192	4
TAP	19	288	4
STR	20	0	5
SI_	20	0	5	96	96	2
HLD	21	0	2	288
HLD	22	0	1	97
TAP	22	192	1
TAP	22	288	1
HLD	23	0	0	96
TAP	23	192	0
TAP	23	288	0
STR	24	0	7
SI_	24	0	7	96	96	2
STR	25	0	3
SI_	25	0	3	96	96	6
HLD	26	0	0	96
TAP	26	192	0
TAP	26	288	0
HLD	27	0	1	96
TAP	27	192	1
TAP	27	288	1
STR	28	0	2
SI_	28	0	2	96	96	5
HLD	29	0	5	288
HLD	30	0	6	144
TAP	31	0	6
TAP	31	96	6
TAP	31	192	5
TAP	31	288	5
TAP	32	0	7
TAP	32	96	7
TAP	32	192	0
TAP	32	288	0
HLD	33	0	1	192
BRK	33	288	1
HLD	34	0	2	144
TAP	35	0	2
TAP	35	96	2
TAP	35	192	3
TAP	35	288	3
TAP	36	0	1
TAP	36	96	1
TAP	36	192	0
TAP	36	288	0
STR	37	0	7
SI_	37	0	7	96	96	4
TAP	38	0	0
TAP	38	96	0
TAP	38	192	1
TAP	38	288	1
TAP	39	0	0
TAP	39	96	0
TAP	39	192	7
TAP	39	288	7
TAP	40	0	6
TAP	40	96	6
TAP	40	192	5
TAP	40	288	5
TAP	41	0	4
TAP	41	96	5
TAP	41	192	6
TAP	41	288	0
TAP	41	288	7
TAP	42	0	1
TAP	42	96	1
TAP	42	192	2
TAP	42	288	2
TAP	43	0	1
TAP	43	96	1
TAP	43	192	0
TAP	43	288	0
TAP	44	0	7
TAP	44	96	7
TAP	44	192	6
TAP	44	288	6
TAP	45	0	5
TAP	45	96	6
TAP	45	192	7
BRK	45	288	0
HLD	46	0	1	96
TAP	46	192	1
HLD	47	0	2	96
TAP	47	192	2
STR	48	0	3
SI_	48	0	3	96	95	0
STR	49	0	7
SI_	49	0	7	96	96	4
BRK	50	0	0

T_REC_TAP	83
T_REC_BRK	4
T_REC_XTP	0
T_REC_HLD	16
T_REC_XHO	0
T_REC_STR	8
T_REC_BST	0
T_REC_XST	0
T_REC_TTP	0
T_REC_THO	0
T_REC_SLD	8
T_REC_ALL	119
T_NUM_TAP	91
T_NUM_BRK	4
T_NUM_HLD	16
T_NUM_SLD	8
T_NUM_ALL	119
T_JUDGE_TAP	95
T_JUDGE_HLD	49
T_JUDGE_SLD	8
T_JUDGE_ALL	152
TTM_EACHPAIRS	4
TTM_SCR_TAP	45500
TTM_SCR_BRK	10400
TTM_SCR_HLD	16000
TTM_SCR_SLD	12000
TTM_SCR_ALL	83900
TTM_SCR_S	81000
TTM_SCR_SS	83500
TTM_RAT_ACV	10047

