VERSION	0.00.00	1.03.00
FES_MODE	0
BPM_DEF	123.000	123.000	123.000	123.000
MET_DEF	4	4
RESOLUTION	384
CLK_DEF	384
COMPATIBLE_CODE	MA2

BPM	0	0	123.000
MET	0	0	4	4

TAP	2	0	1
HLD	2	0	4	336
TAP	2	96	0
TAP	2	168	7
TAP	2	240	6
TAP	2	336	5
HLD	3	48	3	288
TAP	3	48	6
TAP	3	120	7
TAP	3	192	0
TAP	3	264	1
TAP	3	336	2
TAP	4	48	1
HLD	4	48	4	288
TAP	4	120	0
TAP	4	192	7
TAP	4	264	6
TAP	4	336	5
HLD	5	48	3	288
TAP	5	48	6
TAP	5	120	7
TAP	5	192	0
TAP	5	264	1
TAP	5	336	2
STR	6	0	1
SI_	6	0	1	96	240	4
TAP	6	96	0
TAP	6	168	7
TAP	6	240	6
TAP	6	336	5
STR	7	48	6
SI_	7	48	6	96	192	3
TAP	7	120	7
TAP	7	192	0
TAP	7	264	1
TAP	7	336	2
STR	8	48	4
SI_	8	48	4	96	192	1
TAP	8	120	0
TAP	8	192	7
TAP	8	264	6
TAP	8	336	5
TAP	9	48	6
TAP	9	120	7
TAP	9	192	0
TAP	9	192	2
TAP	9	264	1
HLD	9	288	2	384
HLD	9	336	6	336
TAP	11	0	1
TAP	11	24	2
TAP	11	48	3
TAP	11	72	2
TAP	11	96	1
TAP	11	144	4
TAP	11	168	5
TAP	11	216	5
HLD	11	240	6	96
TAP	12	0	6
TAP	12	24	5
TAP	12	48	4
TAP	12	72	5
TAP	12	96	6
TAP	12	144	3
TAP	12	168	2
TAP	12	216	2
HLD	12	240	1	96
STR	12	336	5
SCR	12	336	5	96	48	0
STR	13	48	1
SCR	13	48	1	96	48	4
TAP	13	240	3
TAP	13	336	3
TAP	14	0	7
TAP	14	24	6
TAP	14	48	5
TAP	14	72	4
HLD	14	96	3	144
TAP	14	144	7
TAP	14	240	2
TAP	14	264	1
TAP	14	288	0
TAP	14	312	7
TAP	14	336	7
TAP	15	0	2
TAP	15	24	1
TAP	15	48	0
TAP	15	72	1
TAP	15	96	2
TAP	15	144	7
TAP	15	168	6
TAP	15	216	6
HLD	15	240	5	96
TAP	16	0	5
TAP	16	24	6
TAP	16	48	7
TAP	16	72	6
TAP	16	96	5
TAP	16	144	0
TAP	16	168	1
TAP	16	216	1
HLD	16	240	2	96
STR	16	336	6
SCL	16	336	6	96	48	3
STR	17	48	2
SCL	17	48	2	96	48	7
STR	17	144	5
SCL	17	144	5	96	48	2
TAP	17	336	0
TAP	18	0	0
TAP	18	24	1
TAP	18	48	2
TAP	18	72	3
HLD	18	96	4	144
TAP	18	144	0
TAP	18	240	5
TAP	18	264	6
TAP	18	288	7
TAP	18	312	0
BRK	18	336	0
STR	19	0	0
SI_	19	0	0	96	48	3
STR	19	96	3
SI_	19	96	3	96	48	0
STR	19	192	0
SI_	19	192	0	96	48	3
STR	19	288	3
SI_	19	288	3	96	48	0
STR	20	0	0
SI_	20	0	0	96	48	3
STR	20	96	3
SI_	20	96	3	96	48	0
STR	20	192	0
SI_	20	192	0	96	48	3
STR	21	0	7
SI_	21	0	7	96	48	4
STR	21	96	4
SI_	21	96	4	96	48	7
STR	21	192	7
SI_	21	192	7	96	48	4
TAP	21	240	1
STR	21	288	4
SI_	21	288	4	96	48	7
STR	22	0	7
SI_	22	0	7	96	48	4
STR	22	96	4
SI_	22	96	4	96	48	7
STR	22	192	7
SI_	22	192	7	96	48	4
TAP	22	240	1
STR	23	0	0
SI_	23	0	0	96	48	4
TAP	23	48	6
STR	23	96	4
SI_	23	96	4	96	48	0
STR	23	192	0
SI_	23	192	0	96	48	4
TAP	23	240	6
STR	23	288	4
SI_	23	288	4	96	48	0
STR	24	0	0
SI_	24	0	0	96	48	4
TAP	24	48	6
STR	24	96	4
SI_	24	96	4	96	48	0
STR	24	192	0
SI_	24	192	0	96	48	4
TAP	24	240	6
STR	25	0	7
SI_	25	0	7	96	48	3
TAP	25	48	1
STR	25	96	3
SI_	25	96	3	96	48	7
TAP	25	144	1
STR	25	192	7
SI_	25	192	7	96	48	3
TAP	25	240	1
STR	25	288	3
SI_	25	288	3	96	48	7
TAP	25	336	1
STR	26	0	7
SI_	26	0	7	96	48	3
TAP	26	48	1
STR	26	96	3
SI_	26	96	3	96	48	7
TAP	26	144	0
STR	26	192	7
SI_	26	192	7	96	48	3
TAP	26	240	2
BRK	26	336	1
STR	27	0	0
SCL	27	0	0	96	48	5
TAP	27	48	0
HLD	27	96	1	72
TAP	27	168	4
TAP	27	216	2
TAP	27	240	3
TAP	27	264	2
HLD	27	336	4	48
HLD	27	336	5	48
HLD	28	48	2	48
HLD	28	48	3	48
HLD	28	144	4	48
HLD	28	144	5	48
HLD	28	240	2	48
HLD	28	240	3	48
TAP	28	336	4
STR	28	336	5
SCR	28	336	5	96	48	0
STR	29	48	3
SCR	29	48	3	96	48	6
TAP	29	216	4
TAP	29	240	3
TAP	29	264	2
TAP	29	288	3
TAP	29	312	2
TAP	29	336	1
TAP	29	360	0
HLD	30	0	4	192
TAP	30	48	5
TAP	30	144	5
HLD	30	192	3	192
TAP	30	240	2
TAP	30	336	2
STR	31	0	7
SCR	31	0	7	96	48	2
TAP	31	48	7
HLD	31	96	6	72
TAP	31	168	3
TAP	31	216	5
TAP	31	240	4
TAP	31	264	5
HLD	31	336	1	48
HLD	31	336	3	48
HLD	32	48	4	48
HLD	32	48	6	48
HLD	32	144	1	48
HLD	32	144	3	48
HLD	32	240	4	48
HLD	32	240	6	48
TAP	32	336	1
STR	32	336	3
SCR	32	336	3	96	48	6
STR	33	48	7
SCR	33	48	7	96	48	2
STR	33	144	4
SCL	33	144	4	96	48	1
BRK	33	240	6
HLD	34	0	5	192
TAP	34	48	6
TAP	34	144	6
HLD	34	192	2	144
TAP	34	240	1
TAP	34	336	1
STR	35	0	0
SI_	35	0	0	96	240	5
TAP	35	96	1
TAP	35	168	7
TAP	35	240	6
TAP	35	336	4
STR	36	48	6
SI_	36	48	6	96	192	3
TAP	36	120	7
TAP	36	192	5
TAP	36	264	4
TAP	36	336	2
STR	37	48	4
SI_	37	48	4	96	192	1
TAP	37	120	5
TAP	37	192	3
TAP	37	264	2
TAP	37	336	0
STR	38	48	2
SI_	38	48	2	96	192	7
TAP	38	120	3
TAP	38	192	1
TAP	38	264	0
TAP	38	336	6
STR	39	0	5
SCR	39	0	5	96	48	0
TAP	39	48	3
TAP	39	144	3
STR	39	192	2
SCL	39	192	2	96	48	7
TAP	39	240	4
TAP	39	336	4
STR	40	0	5
SCR	40	0	5	96	48	0
TAP	40	48	2
TAP	40	144	2
STR	40	192	2
SCL	40	192	2	96	48	7
TAP	40	240	5
STR	40	336	2
SCR	40	336	2	96	48	5
STR	41	48	6
SCR	41	48	6	96	48	1
STR	41	144	3
SI_	41	144	3	96	48	7
TAP	42	48	0
TAP	42	48	2
TAP	42	120	1
TAP	42	120	3
TAP	42	192	5
TAP	42	192	7
TAP	42	264	4
TAP	42	264	6
TAP	42	336	2
TAP	42	336	5

T_REC_TAP	164
T_REC_BRK	3
T_REC_XTP	0
T_REC_HLD	34
T_REC_XHO	0
T_REC_STR	54
T_REC_BST	0
T_REC_XST	0
T_REC_TTP	0
T_REC_THO	0
T_REC_SLD	54
T_REC_ALL	309
T_NUM_TAP	218
T_NUM_BRK	3
T_NUM_HLD	34
T_NUM_SLD	54
T_NUM_ALL	309
T_JUDGE_TAP	221
T_JUDGE_HLD	89
T_JUDGE_SLD	54
T_JUDGE_ALL	364
TTM_EACHPAIRS	20
TTM_SCR_TAP	109000
TTM_SCR_BRK	7800
TTM_SCR_HLD	34000
TTM_SCR_SLD	81000
TTM_SCR_ALL	231800
TTM_SCR_S	224600
TTM_SCR_SS	231500
TTM_RAT_ACV	10012

