VERSION	0.00.00	1.03.00
FES_MODE	0
BPM_DEF	123.000	123.000	123.000	123.000
MET_DEF	4	4
RESOLUTION	384
CLK_DEF	384
COMPATIBLE_CODE	MA2

BPM	0	0	123.000
MET	0	0	4	4

STR	2	0	3
SI_	2	0	3	96	192	7
HLD	4	0	0	384
HLD	5	0	1	384
TAP	6	0	2
TAP	6	96	7
TAP	6	192	4
TAP	6	288	1
TAP	7	0	6
TAP	7	96	3
TAP	7	192	0
TAP	7	288	5
TAP	8	0	2
TAP	8	96	7
TAP	8	192	4
TAP	8	288	1
TAP	9	0	6
TAP	9	96	3
TAP	9	192	0
TAP	9	288	7
HLD	9	336	7	336
TAP	10	288	0
TAP	10	336	0
TAP	10	336	7
HLD	11	48	1	48
HLD	11	48	2	48
HLD	11	144	2	48
HLD	11	144	3	48
HLD	11	240	0	48
HLD	11	240	1	48
TAP	11	336	7
TAP	11	360	7
HLD	12	48	0	72
HLD	12	120	1	72
HLD	12	192	2	144
TAP	12	288	1
STR	12	336	7
SCL	12	336	7	96	48	4
HLD	13	48	0	240
HLD	13	144	4	240
TAP	14	0	6
STR	14	48	6
SI_	14	48	6	96	48	2
STR	14	144	7
SI_	14	144	7	96	48	3
STR	14	240	0
SI_	14	240	0	96	48	4
HLD	15	48	2	48
HLD	15	48	3	48
HLD	15	144	3	48
HLD	15	144	4	48
HLD	15	240	0	48
HLD	15	240	1	48
TAP	15	336	6
TAP	15	360	6
HLD	16	48	7	72
HLD	16	120	0	72
HLD	16	192	1	144
TAP	16	288	2
STR	16	336	2
SI_	16	336	2	96	48	6
HLD	17	48	5	96
HLD	17	144	4	96
HLD	17	240	3	96
TAP	17	336	2
HLD	18	0	2	288
TAP	18	288	3
TAP	18	336	4
TAP	18	336	5
HLD	19	0	6	96
TAP	19	0	7
TAP	19	96	0
TAP	19	192	1
TAP	19	240	2
TAP	19	288	3
TAP	19	336	2
HLD	19	360	1	72
HLD	20	48	0	240
STR	20	288	7
SI_	20	288	7	96	48	4
STR	21	0	0
SI_	21	0	0	96	48	3
STR	21	96	7
SI_	21	96	7	96	48	4
STR	21	192	0
SI_	21	192	0	96	48	3
HLD	22	0	7	288
TAP	22	240	0
BRK	22	288	0
TAP	23	0	7
TAP	23	48	6
TAP	23	96	7
STR	23	144	0
SI_	23	144	0	96	48	4
HLD	23	168	1	216
TAP	24	0	4
TAP	24	48	5
TAP	24	96	6
TAP	24	96	7
TAP	24	144	5
TAP	24	168	4
TAP	24	216	5
TAP	24	240	6
TAP	24	288	0
TAP	24	288	7
TAP	25	0	0
HLD	25	0	1	96
TAP	25	96	2
TAP	25	192	0
HLD	25	192	7	96
TAP	25	288	6
TAP	26	0	0
HLD	26	0	1	96
HLD	26	96	3	96
HLD	26	192	5	96
BRK	26	288	7
HLD	27	0	0	48
TAP	27	0	1
HLD	27	48	1	48
TAP	27	96	0
TAP	27	168	0
TAP	27	168	1
BRK	27	288	7
TAP	28	0	6
STR	28	48	6
SI_	28	48	6	96	48	2
STR	28	144	0
SI_	28	144	0	96	48	4
STR	28	240	7
SI_	28	240	7	96	48	3
TAP	29	48	3
TAP	29	48	7
HLD	29	144	1	144
HLD	29	144	5	144
TAP	30	0	4
TAP	30	0	7
TAP	30	96	0
TAP	30	96	3
TAP	30	192	4
TAP	30	192	5
TAP	30	288	2
TAP	30	288	3
HLD	31	0	6	48
TAP	31	0	7
HLD	31	48	7	48
TAP	31	96	6
TAP	31	168	6
TAP	31	168	7
BRK	31	288	0
TAP	32	0	1
STR	32	48	1
SI_	32	48	1	96	48	5
STR	32	144	7
SI_	32	144	7	96	48	3
STR	32	240	0
SI_	32	240	0	96	48	4
HLD	33	48	0	48
HLD	33	48	4	48
HLD	33	144	2	48
HLD	33	144	6	48
HLD	33	240	1	48
HLD	33	240	5	48
TAP	34	0	4
TAP	34	0	7
TAP	34	96	0
TAP	34	96	3
TAP	34	192	4
TAP	34	192	5
STR	34	288	2
SCL	34	288	2	96	192	7
STR	34	288	3
SCR	34	288	3	96	192	6
HLD	36	0	7	288
STR	37	0	0
SI_	37	0	0	96	192	4
STR	38	0	1
SI_	38	0	1	96	192	5
TAP	38	288	7
BRK	38	336	7
STR	39	48	0
SI_	39	48	0	96	48	4
STR	39	144	6
SI_	39	144	6	96	48	2
STR	39	240	7
SI_	39	240	7	96	48	3
STR	39	336	5
SI_	39	336	5	96	48	1
STR	40	48	2
SI_	40	48	2	96	48	6
STR	40	144	4
SI_	40	144	4	96	48	0
STR	40	240	3
SI_	40	240	3	96	48	7
HLD	41	48	3	48
HLD	41	48	7	48
HLD	41	144	1	48
HLD	41	144	5	48
HLD	41	240	0	48
HLD	41	240	4	48
HLD	41	336	3	48
HLD	41	336	7	48
TAP	42	48	5
TAP	42	120	3
BRK	42	192	0
BRK	42	192	4
BRK	42	264	1
BRK	42	264	5
BRK	42	336	2
BRK	42	336	6

T_REC_TAP	84
T_REC_BRK	11
T_REC_XTP	0
T_REC_HLD	58
T_REC_XHO	0
T_REC_STR	28
T_REC_BST	0
T_REC_XST	0
T_REC_TTP	0
T_REC_THO	0
T_REC_SLD	28
T_REC_ALL	209
T_NUM_TAP	112
T_NUM_BRK	11
T_NUM_HLD	58
T_NUM_SLD	28
T_NUM_ALL	209
T_JUDGE_TAP	123
T_JUDGE_HLD	131
T_JUDGE_SLD	28
T_JUDGE_ALL	282
TTM_EACHPAIRS	38
TTM_SCR_TAP	56000
TTM_SCR_BRK	28600
TTM_SCR_HLD	58000
TTM_SCR_SLD	42000
TTM_SCR_ALL	184600
TTM_SCR_S	178000
TTM_SCR_SS	183500
TTM_RAT_ACV	10059

