VERSION	0.00.00	1.03.00
FES_MODE	0
BPM_DEF	123.000	123.000	123.000	123.000
MET_DEF	4	4
RESOLUTION	384
CLK_DEF	384
COMPATIBLE_CODE	MA2

BPM	0	0	123.000
MET	0	0	4	4

STR	2	0	7
SCR	2	0	7	96	480	2
HLD	4	0	3	288
HLD	5	0	4	288
TAP	6	0	1
TAP	6	96	3
TAP	6	192	2
TAP	6	288	7
TAP	7	0	6
TAP	7	96	4
TAP	7	192	5
TAP	7	288	0
STR	8	0	1
SI_	8	0	1	96	96	6
STR	8	192	5
SI_	8	192	5	96	96	2
HLD	9	0	6	96
HLD	9	96	7	96
HLD	9	192	0	96
HLD	9	288	1	288
HLD	9	336	6	240
BRK	10	288	0
BRK	10	288	7
TAP	11	0	7
TAP	11	48	0
TAP	11	96	1
TAP	11	192	3
TAP	11	240	4
TAP	11	288	5
HLD	12	0	0	96
TAP	12	96	1
HLD	12	192	7	96
TAP	12	288	6
TAP	13	0	1
TAP	13	48	7
TAP	13	96	5
TAP	13	192	5
TAP	13	240	3
TAP	13	288	1
STR	14	0	7
SCR	14	0	7	96	48	2
STR	14	192	6
SCL	14	192	6	96	48	3
TAP	15	0	2
TAP	15	48	3
TAP	15	96	4
TAP	15	96	5
TAP	15	192	0
TAP	15	240	1
TAP	15	288	2
TAP	15	288	3
HLD	16	0	3	96
TAP	16	96	2
HLD	16	192	4	96
TAP	16	288	5
TAP	17	0	7
TAP	17	48	7
TAP	17	96	2
TAP	17	96	4
TAP	17	192	0
TAP	17	240	0
TAP	17	288	3
TAP	17	288	5
STR	18	0	1
SCR	18	0	1	96	48	4
STR	18	192	0
SCL	18	192	0	96	48	5
TAP	19	0	6
TAP	19	48	5
TAP	19	96	4
TAP	19	144	3
TAP	19	192	2
TAP	19	240	1
TAP	19	288	0
STR	20	0	7
SI_	20	0	7	96	96	3
TAP	20	48	7
STR	20	192	0
SI_	20	192	0	96	96	4
TAP	20	240	0
TAP	21	0	1
TAP	21	48	2
TAP	21	96	3
TAP	21	144	4
TAP	21	192	5
TAP	21	240	6
TAP	21	288	7
TAP	22	0	1
TAP	22	0	3
TAP	22	96	1
TAP	22	96	7
TAP	22	192	5
TAP	22	192	7
BRK	22	288	3
BRK	22	288	5
TAP	23	0	0
TAP	23	48	2
TAP	23	96	4
TAP	23	144	6
TAP	23	192	5
TAP	23	240	3
TAP	23	288	1
STR	24	0	1
SI_	24	0	1	96	96	4
TAP	24	48	1
STR	24	192	5
SI_	24	192	5	96	96	0
TAP	24	240	5
TAP	25	0	1
TAP	25	48	1
TAP	25	96	2
TAP	25	96	3
TAP	25	192	0
TAP	25	240	0
TAP	25	288	6
TAP	25	288	7
TAP	26	0	1
TAP	26	48	2
TAP	26	96	3
TAP	26	144	4
TAP	26	192	5
TAP	26	240	6
BRK	26	288	7
HLD	27	0	2	96
TAP	27	96	3
HLD	27	192	5	96
TAP	27	288	4
TAP	28	0	2
TAP	28	48	4
TAP	28	96	0
TAP	28	192	6
TAP	28	240	2
TAP	28	288	4
STR	29	0	0
SI_	29	0	0	96	48	5
STR	29	192	3
SI_	29	192	3	96	48	7
TAP	30	0	6
TAP	30	48	5
TAP	30	96	4
TAP	30	144	3
TAP	30	192	2
TAP	30	240	1
BRK	30	288	0
TAP	31	0	1
TAP	31	48	2
TAP	31	96	3
TAP	31	96	5
TAP	31	192	0
TAP	31	240	7
TAP	31	288	4
TAP	31	288	6
TAP	32	0	1
TAP	32	48	2
TAP	32	96	3
TAP	32	144	4
TAP	32	192	5
TAP	32	240	6
TAP	32	288	6
TAP	32	288	7
TAP	33	0	3
TAP	33	0	4
TAP	33	96	2
TAP	33	96	3
TAP	33	192	1
TAP	33	192	2
TAP	33	288	0
TAP	33	288	1
TAP	34	0	2
TAP	34	48	3
TAP	34	96	4
TAP	34	144	5
TAP	34	192	6
TAP	34	240	7
STR	34	288	0
SCL	34	288	0	96	288	5
HLD	36	0	7	384
HLD	37	0	0	192
HLD	37	192	1	192
HLD	38	0	2	288
TAP	39	0	0
TAP	39	0	1
TAP	39	48	0
TAP	39	48	1
TAP	39	96	6
TAP	39	96	7
TAP	39	192	2
TAP	39	192	3
TAP	39	240	2
TAP	39	240	3
TAP	39	288	4
TAP	39	288	5
STR	40	0	0
SCL	40	0	0	96	96	5
TAP	40	48	0
STR	40	192	1
SCR	40	192	1	96	96	4
TAP	40	240	1
HLD	41	0	1	96
HLD	41	96	7	96
HLD	41	192	5	96
HLD	41	288	3	96
HLD	42	0	1	192
TAP	42	192	0
TAP	42	264	0
BRK	42	336	0
BRK	42	336	7

T_REC_TAP	145
T_REC_BRK	8
T_REC_XTP	0
T_REC_HLD	22
T_REC_XHO	0
T_REC_STR	16
T_REC_BST	0
T_REC_XST	0
T_REC_TTP	0
T_REC_THO	0
T_REC_SLD	16
T_REC_ALL	207
T_NUM_TAP	161
T_NUM_BRK	8
T_NUM_HLD	22
T_NUM_SLD	16
T_NUM_ALL	207
T_JUDGE_TAP	169
T_JUDGE_HLD	75
T_JUDGE_SLD	16
T_JUDGE_ALL	260
TTM_EACHPAIRS	25
TTM_SCR_TAP	80500
TTM_SCR_BRK	20800
TTM_SCR_HLD	22000
TTM_SCR_SLD	24000
TTM_SCR_ALL	147300
TTM_SCR_S	142150
TTM_SCR_SS	146500
TTM_RAT_ACV	10054

