VERSION	0.00.00	1.03.00
FES_MODE	0
BPM_DEF	127.000	127.000	127.000	127.000
MET_DEF	4	4
RESOLUTION	384
CLK_DEF	384
COMPATIBLE_CODE	MA2

BPM	0	0	127.000
MET	0	0	4	4

TAP	2	0	1
STR	2	0	3
SI_	2	0	3	96	192	7
TAP	2	96	7
TAP	2	192	5
TAP	2	216	5
TAP	2	264	6
STR	3	0	4
SI_	3	0	4	96	192	0
TAP	3	0	6
TAP	3	96	0
TAP	3	192	2
TAP	3	216	2
TAP	3	264	1
TAP	4	0	1
STR	4	0	3
SI_	4	0	3	96	192	7
TAP	4	96	7
TAP	4	192	5
TAP	4	216	5
TAP	4	264	6
TAP	4	336	0
TAP	4	336	6
HLD	5	0	7	72
HLD	5	72	5	72
HLD	5	144	3	144
TAP	5	240	1
TAP	5	288	1
STR	6	0	2
SCR	6	0	2	96	192	7
TAP	6	0	4
TAP	6	96	7
TAP	6	192	0
TAP	6	216	0
TAP	6	264	1
TAP	7	0	3
STR	7	0	5
SCL	7	0	5	96	192	0
TAP	7	96	0
TAP	7	192	7
TAP	7	216	7
TAP	7	264	6
STR	8	0	2
SCR	8	0	2	96	192	7
TAP	8	0	4
TAP	8	96	7
TAP	8	192	0
TAP	8	216	0
TAP	8	264	1
TAP	8	336	0
TAP	8	336	6
HLD	9	0	7	72
HLD	9	72	1	72
HLD	9	144	3	144
TAP	9	240	5
TAP	9	288	5
TAP	9	336	4
TAP	10	0	3
TAP	10	48	4
TAP	10	96	5
TAP	10	144	6
TAP	10	192	7
TAP	10	240	0
TAP	10	288	1
TAP	10	336	2
TAP	11	0	3
TAP	11	24	4
TAP	11	48	5
TAP	11	72	6
TAP	11	96	2
TAP	11	120	4
TAP	11	144	6
TAP	11	168	0
TAP	11	192	1
TAP	11	192	5
TAP	11	240	2
TAP	11	240	6
BRK	11	288	3
BRK	11	288	7
TAP	11	336	0
TAP	11	336	6
TAP	12	0	5
TAP	12	0	7
TAP	12	48	0
TAP	12	72	7
STR	12	96	1
SCR	12	96	1	96	72	4
TAP	12	144	4
STR	12	168	4
SI_	12	168	4	96	48	0
TAP	12	192	1
TAP	12	216	6
TAP	12	264	6
TAP	12	336	7
TAP	13	0	0
TAP	13	0	2
TAP	13	48	7
TAP	13	72	0
STR	13	96	6
SCL	13	96	6	96	72	3
TAP	13	144	3
STR	13	168	3
SI_	13	168	3	96	48	7
TAP	13	192	6
TAP	13	216	1
TAP	13	264	1
TAP	13	336	0
TAP	14	0	5
TAP	14	0	7
TAP	14	48	0
TAP	14	72	7
STR	14	96	1
SCR	14	96	1	96	72	4
TAP	14	144	4
STR	14	168	4
SI_	14	168	4	96	48	0
TAP	14	192	1
TAP	14	216	6
TAP	14	264	6
STR	14	336	7
SI_	14	336	7	96	48	3
STR	15	0	3
SI_	15	0	3	96	72	6
STR	15	72	6
SI_	15	72	6	96	48	1
STR	15	144	1
SCL	15	144	1	96	48	5
TAP	15	240	4
TAP	15	288	4
TAP	16	0	5
TAP	16	48	1
TAP	16	72	0
STR	16	96	2
SCR	16	96	2	96	72	5
TAP	16	144	5
STR	16	168	5
SI_	16	168	5	96	48	0
TAP	16	192	2
TAP	16	216	7
TAP	16	264	7
TAP	16	336	6
TAP	17	0	0
TAP	17	0	1
TAP	17	48	6
TAP	17	72	7
STR	17	96	5
SCL	17	96	5	96	72	2
TAP	17	144	2
STR	17	168	2
SI_	17	168	2	96	48	7
TAP	17	192	5
TAP	17	216	0
TAP	17	264	0
TAP	17	336	1
TAP	18	0	6
TAP	18	0	7
TAP	18	48	1
TAP	18	72	0
STR	18	96	2
SCR	18	96	2	96	72	5
TAP	18	144	5
STR	18	168	5
SI_	18	168	5	96	48	0
TAP	18	192	2
TAP	18	216	7
TAP	18	264	7
TAP	18	336	6
BST	19	0	0
SCR	19	0	0	96	192	6
HLD	19	0	7	48
HLD	19	72	7	48
HLD	19	144	7	144
HLD	20	0	5	192
TAP	20	48	4
TAP	20	96	6
TAP	20	144	7
HLD	20	192	0	192
TAP	20	240	1
TAP	20	288	7
TAP	20	336	6
HLD	21	0	5	192
TAP	21	48	7
TAP	21	96	6
TAP	21	144	4
TAP	21	192	3
TAP	21	240	2
TAP	21	240	4
TAP	21	288	1
TAP	21	288	3
TAP	21	336	0
STR	21	336	2
SCR	21	336	2	96	96	6
STR	22	48	6
SCR	22	48	6	96	96	2
STR	22	144	2
SCR	22	144	2	96	96	6
STR	22	240	6
SCR	22	240	6	96	192	5
SUR	22	240	6	96	192	5
TAP	23	264	4
TAP	23	288	3
TAP	23	336	3
HLD	24	0	2	192
TAP	24	48	3
TAP	24	96	1
TAP	24	144	0
HLD	24	192	7	192
TAP	24	240	6
TAP	24	288	0
TAP	24	336	1
HLD	25	0	2	192
TAP	25	48	0
TAP	25	96	1
TAP	25	144	3
TAP	25	192	4
TAP	25	240	3
TAP	25	240	5
TAP	25	288	4
TAP	25	288	6
STR	25	336	5
SCL	25	336	5	96	96	1
TAP	25	336	7
STR	26	48	1
SCL	26	48	1	96	96	5
STR	26	144	5
SCL	26	144	5	96	96	1
STR	26	240	1
SCL	26	240	1	96	192	2
SUL	26	240	1	96	192	2
TAP	27	192	7
TAP	27	240	7
TAP	27	288	7
TAP	27	336	7
BST	28	0	6
SUL	28	0	6	96	144	3
HLD	28	0	7	672
STR	29	0	0
SUR	29	0	0	96	144	3
HLD	30	0	0	576
BST	30	0	1
SUR	30	0	1	96	144	4
STR	31	0	7
SUR	31	0	7	96	96	4
TAP	31	240	5
TAP	31	240	7
TAP	31	288	0
TAP	31	288	6
HLD	31	336	1	240
BRK	31	336	7
TAP	32	48	0
TAP	32	96	2
TAP	32	144	0
TAP	32	192	2
TAP	32	288	1
TAP	32	288	3
TAP	32	336	2
TAP	32	336	4
BRK	33	0	3
HLD	33	0	5	72
HLD	33	72	6	216
TAP	33	144	5
TAP	33	192	7
TAP	33	240	5
TAP	33	288	7
TAP	33	336	0
TAP	33	336	7
TAP	34	0	3
TAP	34	48	4
TAP	34	96	5
TAP	34	144	6
TAP	34	192	7
TAP	34	240	0
TAP	34	288	1
TAP	34	336	2
TAP	35	0	4
TAP	35	24	0
TAP	35	48	6
TAP	35	72	2
TAP	35	96	4
TAP	35	120	0
TAP	35	144	6
TAP	35	168	2
BST	35	192	1
SCR	35	192	1	96	48	4
BST	35	192	5
SCR	35	192	5	96	48	0
BRK	35	240	3
BRK	35	240	7
BRK	35	288	1
BRK	35	288	5
TAP	36	0	0
TAP	36	0	2
TAP	36	48	7
TAP	36	72	0
STR	36	96	6
SLL	36	96	6	96	72	7
TAP	36	144	7
STR	36	168	7
SI_	36	168	7	96	48	2
TAP	36	192	6
TAP	36	216	1
TAP	36	264	1
TAP	36	336	3
TAP	37	0	5
TAP	37	0	7
TAP	37	48	0
TAP	37	72	7
STR	37	96	1
SLR	37	96	1	96	72	0
TAP	37	144	0
STR	37	168	0
SI_	37	168	0	96	48	5
TAP	37	192	1
TAP	37	216	6
TAP	37	264	6
TAP	37	336	4
TAP	38	0	0
TAP	38	0	2
TAP	38	48	7
TAP	38	72	0
STR	38	96	6
SLL	38	96	6	96	72	7
TAP	38	144	7
STR	38	168	7
SI_	38	168	7	96	48	2
TAP	38	192	6
TAP	38	216	1
TAP	38	264	1
STR	38	336	0
SI_	38	336	0	96	48	4
STR	39	0	4
SI_	39	0	4	96	48	1
STR	39	72	1
SI_	39	72	1	96	72	6
STR	39	144	6
SCR	39	144	6	96	48	2
TAP	39	240	3
TAP	39	288	3
TAP	40	0	5
TAP	40	48	3
TAP	40	72	4
STR	40	96	2
SLL	40	96	2	96	72	3
TAP	40	144	3
STR	40	168	3
SI_	40	168	3	96	48	7
TAP	40	192	2
TAP	40	216	5
TAP	40	264	5
TAP	40	336	4
TAP	41	0	1
TAP	41	0	3
TAP	41	48	4
TAP	41	72	3
STR	41	96	5
SLR	41	96	5	96	72	4
TAP	41	144	4
STR	41	168	4
SI_	41	168	4	96	48	0
TAP	41	192	5
TAP	41	216	2
TAP	41	264	2
TAP	41	336	3
TAP	42	0	4
TAP	42	0	6
TAP	42	48	3
TAP	42	72	4
STR	42	96	2
SLL	42	96	2	96	72	3
TAP	42	144	3
STR	42	168	3
SI_	42	168	3	96	48	7
TAP	42	192	2
TAP	42	216	5
TAP	42	264	5
TAP	42	336	4
HLD	43	0	0	48
BST	43	0	7
SCL	43	0	7	96	144	1
HLD	43	72	0	48
HLD	43	144	0	96
STR	43	288	3
SI_	43	288	3	96	288	0
TAP	43	312	5
TAP	43	336	1
TAP	43	360	7
BRK	44	0	3

T_REC_TAP	243
T_REC_BRK	9
T_REC_XTP	0
T_REC_HLD	23
T_REC_XHO	0
T_REC_STR	49
T_REC_BST	6
T_REC_XST	0
T_REC_TTP	0
T_REC_THO	0
T_REC_SLD	57
T_REC_ALL	387
T_NUM_TAP	292
T_NUM_BRK	15
T_NUM_HLD	23
T_NUM_SLD	57
T_NUM_ALL	387
T_JUDGE_TAP	307
T_JUDGE_HLD	85
T_JUDGE_SLD	57
T_JUDGE_ALL	449
TTM_EACHPAIRS	42
TTM_SCR_TAP	146000
TTM_SCR_BRK	39000
TTM_SCR_HLD	23000
TTM_SCR_SLD	85500
TTM_SCR_ALL	293500
TTM_SCR_S	283250
TTM_SCR_SS	292000
TTM_RAT_ACV	10051

