VERSION	0.00.00	1.03.00
FES_MODE	0
BPM_DEF	127.000	127.000	127.000	127.000
MET_DEF	4	4
RESOLUTION	384
CLK_DEF	384
COMPATIBLE_CODE	MA2

BPM	0	0	127.000
MET	0	0	4	4

STR	2	0	3
SI_	2	0	3	96	192	7
HLD	2	192	0	192
STR	3	0	6
SI_	3	0	6	96	192	2
HLD	3	192	1	192
TAP	4	0	0
TAP	4	192	7
TAP	5	0	1
TAP	5	96	3
TAP	5	192	5
BRK	5	288	7
STR	6	0	0
SI_	6	0	0	96	96	4
TAP	6	96	7
TAP	6	192	5
TAP	6	288	3
STR	7	0	1
SI_	7	0	1	96	96	5
TAP	7	96	2
TAP	7	192	4
TAP	7	288	6
STR	8	0	7
SI_	8	0	7	96	96	3
TAP	8	96	0
TAP	8	192	2
TAP	8	288	4
STR	9	0	5
SCL	9	0	5	96	96	2
TAP	9	96	5
STR	9	192	0
SCL	9	192	0	96	96	5
TAP	9	288	0
TAP	10	0	0
TAP	10	48	1
TAP	10	96	2
TAP	10	144	3
TAP	10	192	4
TAP	10	240	5
TAP	10	288	6
TAP	10	336	7
STR	11	0	5
SI_	11	0	5	96	24	1
STR	11	48	3
SI_	11	48	3	96	24	7
STR	11	192	6
SI_	11	192	6	96	48	2
TAP	11	216	5
TAP	11	240	4
TAP	11	264	3
BRK	11	336	0
STR	12	0	7
SI_	12	0	7	96	24	3
TAP	12	72	7
STR	12	96	0
SI_	12	96	0	96	24	4
TAP	12	168	0
STR	12	192	6
SI_	12	192	6	96	24	2
TAP	12	264	6
TAP	12	336	1
STR	13	0	1
SI_	13	0	1	96	24	5
TAP	13	72	1
STR	13	96	7
SI_	13	96	7	96	24	3
TAP	13	168	7
STR	13	192	0
SI_	13	192	0	96	24	4
TAP	13	264	0
TAP	13	336	5
STR	14	0	5
SI_	14	0	5	96	24	1
TAP	14	72	5
STR	14	96	3
SI_	14	96	3	96	24	7
TAP	14	168	3
STR	14	192	4
SI_	14	192	4	96	24	0
TAP	14	264	4
TAP	14	336	7
STR	15	0	7
SI_	15	0	7	96	48	3
STR	15	96	6
SI_	15	96	6	96	48	2
STR	15	192	5
SI_	15	192	5	96	48	1
BRK	15	288	0
STR	16	0	0
SI_	16	0	0	96	24	4
TAP	16	72	0
STR	16	96	7
SI_	16	96	7	96	24	3
TAP	16	168	7
STR	16	192	1
SI_	16	192	1	96	24	5
TAP	16	264	1
TAP	16	336	6
STR	17	0	6
SI_	17	0	6	96	24	2
TAP	17	72	6
STR	17	96	0
SI_	17	96	0	96	24	4
TAP	17	168	0
STR	17	192	7
SI_	17	192	7	96	24	3
TAP	17	264	7
TAP	17	336	2
STR	18	0	2
SI_	18	0	2	96	24	6
TAP	18	72	2
STR	18	96	4
SI_	18	96	4	96	24	0
TAP	18	168	4
STR	18	192	3
SI_	18	192	3	96	24	7
TAP	18	264	3
TAP	18	336	6
HLD	19	0	5	144
TAP	19	72	3
HLD	19	144	1	144
HLD	20	0	1	96
TAP	20	48	2
HLD	20	96	3	96
HLD	20	192	1	96
TAP	20	240	0
HLD	20	288	7	96
HLD	21	0	0	96
TAP	21	48	1
HLD	21	96	2	96
HLD	21	192	0	96
TAP	21	240	7
HLD	21	288	6	96
STR	22	0	7
SI_	22	0	7	96	96	3
TAP	22	48	7
STR	22	192	1
SI_	22	192	1	96	96	5
TAP	22	240	1
STR	23	0	0
SI_	23	0	0	96	96	4
TAP	23	48	0
STR	23	192	7
SI_	23	192	7	96	96	3
TAP	23	240	7
HLD	24	0	7	96
TAP	24	48	0
HLD	24	96	1	96
HLD	24	192	7	96
TAP	24	240	6
HLD	24	288	5	96
HLD	25	0	6	96
TAP	25	48	7
HLD	25	96	0	96
HLD	25	192	6	96
TAP	25	240	5
HLD	25	288	4	96
STR	26	0	5
SI_	26	0	5	96	96	1
TAP	26	48	5
STR	26	192	3
SI_	26	192	3	96	96	7
TAP	26	240	3
STR	27	0	0
SI_	27	0	0	96	96	4
TAP	27	48	0
STR	27	192	1
SI_	27	192	1	96	96	5
TAP	27	240	1
BRK	27	288	7
HLD	28	0	0	384
HLD	29	0	1	384
STR	30	0	2
SI_	30	0	2	96	192	6
STR	30	192	7
SI_	30	192	7	96	192	3
STR	31	0	1
SI_	31	0	1	96	192	5
STR	31	192	4
SI_	31	192	4	96	192	0
HLD	31	336	1	240
HLD	32	288	2	96
TAP	32	336	3
HLD	33	0	0	72
HLD	33	72	6	216
TAP	34	0	5
TAP	34	48	5
TAP	34	96	4
TAP	34	144	4
TAP	34	192	3
TAP	34	240	3
TAP	34	288	2
TAP	34	336	2
TAP	35	0	3
TAP	35	24	4
TAP	35	48	5
TAP	35	72	6
TAP	35	96	2
TAP	35	120	4
TAP	35	144	6
TAP	35	168	0
TAP	35	192	1
TAP	35	192	5
TAP	35	240	2
TAP	35	240	6
BRK	35	288	3
BRK	35	288	7
STR	36	0	7
SI_	36	0	7	96	24	3
TAP	36	72	7
STR	36	96	1
SI_	36	96	1	96	24	5
TAP	36	168	1
STR	36	192	0
SI_	36	192	0	96	24	4
TAP	36	264	0
STR	36	288	7
SI_	36	288	7	96	24	3
TAP	36	360	7
STR	37	0	6
SI_	37	0	6	96	24	2
TAP	37	72	6
STR	37	96	0
SI_	37	96	0	96	24	4
TAP	37	168	0
STR	37	192	7
SI_	37	192	7	96	24	3
TAP	37	264	7
STR	37	288	0
SI_	37	288	0	96	24	4
TAP	37	360	0
STR	38	0	6
SI_	38	0	6	96	24	2
TAP	38	72	6
STR	38	96	4
SI_	38	96	4	96	24	0
TAP	38	168	4
STR	38	192	2
SI_	38	192	2	96	24	6
TAP	38	264	2
TAP	38	336	5
HLD	39	0	6	144
TAP	39	72	7
HLD	39	144	0	96
HLD	39	240	1	96
BRK	39	336	0
STR	40	0	0
SI_	40	0	0	96	24	4
TAP	40	72	0
STR	40	96	6
SI_	40	96	6	96	24	2
TAP	40	168	6
STR	40	192	7
SI_	40	192	7	96	24	3
TAP	40	264	7
STR	40	288	0
SI_	40	288	0	96	24	4
BRK	40	336	0
STR	41	0	1
SI_	41	0	1	96	24	5
TAP	41	72	1
STR	41	96	7
SI_	41	96	7	96	24	3
TAP	41	168	7
STR	41	192	0
SI_	41	192	0	96	24	4
TAP	41	264	0
STR	41	288	7
SI_	41	288	7	96	24	3
BRK	41	336	7
STR	42	0	1
SI_	42	0	1	96	24	5
TAP	42	72	1
STR	42	96	3
SI_	42	96	3	96	24	7
TAP	42	168	3
STR	42	192	5
SI_	42	192	5	96	24	1
TAP	42	264	5
TAP	42	336	1
STR	43	0	2
SCL	43	0	2	96	24	7
TAP	43	72	3
HLD	43	144	5	240
STR	43	288	3
SI_	43	288	3	96	48	7

T_REC_TAP	113
T_REC_BRK	9
T_REC_XTP	0
T_REC_HLD	30
T_REC_XHO	0
T_REC_STR	67
T_REC_BST	0
T_REC_XST	0
T_REC_TTP	0
T_REC_THO	0
T_REC_SLD	67
T_REC_ALL	286
T_NUM_TAP	180
T_NUM_BRK	9
T_NUM_HLD	30
T_NUM_SLD	67
T_NUM_ALL	286
T_JUDGE_TAP	189
T_JUDGE_HLD	88
T_JUDGE_SLD	67
T_JUDGE_ALL	344
TTM_EACHPAIRS	3
TTM_SCR_TAP	90000
TTM_SCR_BRK	23400
TTM_SCR_HLD	30000
TTM_SCR_SLD	100500
TTM_SCR_ALL	243900
TTM_SCR_S	235750
TTM_SCR_SS	243000
TTM_RAT_ACV	10037

